<?xml version="1.0" standalone="no"?>
<!DOCTYPE svg PUBLIC "-//W3C//DTD SVG 1.1//EN" "http://www.w3.org/Graphics/SVG/1.1/DTD/svg11.dtd" >
<svg>
<metadata>
Created by FontForge 20090622 at Sun May 19 06:26:13 2019
 By deploy user
Copyright 2018 The Kodchasan Project Authors (https://github.com/cadsondemak/Kodchasan)
</metadata>
<defs>
<font id="Kodchasan-Bold" horiz-adv-x="0" >
  <font-face 
    font-family="Kodchasan"
    font-weight="700"
    font-stretch="normal"
    units-per-em="1000"
    panose-1="0 0 8 0 0 0 0 0 0 0"
    ascent="800"
    descent="-200"
    x-height="490"
    cap-height="710"
    bbox="-741 -539 1247 1248"
    underline-thickness="50"
    underline-position="-50"
    unicode-range="U+000D-U+FB02"
  />
<missing-glyph horiz-adv-x="729" 
d="M96 848h536v-848h-536v848zM583 50v748h-439v-748h439z" />
    <glyph glyph-name="fi" unicode="fi" horiz-adv-x="658" 
d="M590 474q18 -16 18 -44v-380q0 -28 -18 -44t-48 -16q-31 0 -48 16t-17 44v339h-232v-339q0 -28 -17 -44t-48 -16q-30 0 -48 16t-18 44v339h-18q-32 0 -51 14t-19 36q0 23 19 37t51 14h18v39q0 97 63.5 153.5t172.5 56.5q63 0 123 -23t97 -62q11 -13 11 -31q0 -25 -18 -42
q-14 -14 -37 -14q-25 0 -45 17q-29 24 -63.5 37.5t-67.5 13.5q-105 0 -105 -102v-43h297q30 0 48 -16z" />
    <glyph glyph-name="fl" unicode="fl" horiz-adv-x="674" 
d="M132 6q-18 16 -18 44v339h-18q-30 0 -50 13t-20 37q0 25 20 38t50 13h18v39q0 97 63.5 153.5t172.5 56.5q129 0 217 -76q22 -19 31.5 -36.5t9.5 -39.5v-537q0 -28 -18 -44t-48 -16t-47.5 15.5t-17.5 44.5v339h-232v-339q0 -29 -17.5 -44.5t-47.5 -15.5t-48 16zM477 490
v106q-54 39 -127 39q-105 0 -105 -102v-43h232z" />
    <glyph glyph-name="uni0E240E45" unicode="&#xe24;&#xe45;" horiz-adv-x="1061" 
d="M950 529.5q61 -54.5 61 -153.5l-1 -586q0 -28 -18 -44t-48 -16t-48 16t-18 44l1 586q0 106 -106 106q-68 0 -140 -58q14 -45 14 -97v-537q0 -28 -18 -44t-48 -16t-48 16t-18 44v539q0 75 -39.5 114t-115.5 39q-70 0 -124.5 -27t-81.5 -74l50 -38q10 10 26 19.5t28 13.5
q13 4 23 4t16.5 -5.5t11.5 -17.5q7 -19 7 -28q0 -18 -20 -26q-28 -10 -47 -33.5t-19 -48.5v-22q10 5 26 8.5t28 3.5q51 0 79.5 -28.5t28.5 -79.5q0 -53 -37.5 -83t-103.5 -30t-105.5 35.5t-39.5 95.5v52q0 35 8 60t25 44l-74 56q-25 19 -25 37q0 10 6 22q40 91 123.5 141.5
t190.5 50.5q144 0 217 -70q42 33 95 51.5t107 18.5q110 0 171 -54.5zM209.5 135.5q-14.5 -12.5 -14.5 -35.5q0 -44 57 -44t57 44q0 23 -14.5 35.5t-42.5 12.5t-42.5 -12.5z" />
    <glyph glyph-name="uni0E260E45" unicode="&#xe26;&#xe45;" horiz-adv-x="1067" 
d="M956 529.5q61 -54.5 61 -153.5l-1 -586q0 -28 -18 -44t-48 -16t-48 16t-18 44l1 586q0 106 -106 106q-67 0 -137 -55q18 -49 18 -110v-528q0 -28 -18 -44t-48 -16t-48 16t-18 44v530q0 77 -41 120t-114 43q-69 0 -119.5 -26.5t-79.5 -77.5l78 -41q8 9 26.5 20t31.5 15
q12 3 21 3q24 0 34 -23q7 -14 7 -26q0 -19 -23 -31q-43 -22 -43 -68v-101q0 -62 -39 -99t-106 -37q-64 0 -102.5 30.5t-38.5 80.5q0 47 32.5 78.5t80.5 31.5q31 0 49 -8v19q0 33 11 52l-108 56q-26 14 -26 34q0 9 7 25q41 92 122 143.5t185 51.5q136 0 211 -70
q42 34 94.5 52t106.5 18q110 0 171 -54.5zM202.5 135.5q-14.5 12.5 -42.5 12.5t-42.5 -12.5t-14.5 -35.5q0 -44 57 -44t57 44q0 23 -14.5 35.5z" />
    <glyph glyph-name=".notdef" horiz-adv-x="729" 
d="M96 848h536v-848h-536v848zM583 50v748h-439v-748h439z" />
    <glyph glyph-name="NULL" 
 />
    <glyph glyph-name="NULL" 
 />
    <glyph glyph-name="nonmarkingreturn" unicode="&#xd;" horiz-adv-x="268" 
 />
    <glyph glyph-name="space" unicode=" " horiz-adv-x="268" 
 />
    <glyph glyph-name="A" unicode="A" horiz-adv-x="730" 
d="M69 7q-18 16 -18 44v350q0 145 83 227t231 82q97 0 168 -37t108.5 -107t37.5 -165v-350q0 -28 -18 -44t-48 -16t-48.5 16.5t-18.5 43.5v163h-362v-163q0 -27 -18.5 -43.5t-48.5 -16.5t-48 16zM546 317v87q0 100 -45.5 150.5t-135.5 50.5q-181 0 -181 -201v-87h362z" />
    <glyph glyph-name="Aacute" unicode="&#xc1;" horiz-adv-x="730" 
d="M69 7q-18 16 -18 44v350q0 145 83 227t231 82q97 0 168 -37t108.5 -107t37.5 -165v-350q0 -28 -18 -44t-48 -16t-48.5 16.5t-18.5 43.5v163h-362v-163q0 -27 -18.5 -43.5t-48.5 -16.5t-48 16zM546 317v87q0 100 -45.5 150.5t-135.5 50.5q-181 0 -181 -201v-87h362z
M335.5 789.5q-6.5 10.5 -6.5 22.5q0 9 3 16l57 146q15 40 50 40q17 0 33 -8q38 -18 38 -48q0 -13 -9 -27l-81 -139q-7 -11 -18.5 -17.5t-25.5 -6.5t-23 5q-11 6 -17.5 16.5z" />
    <glyph glyph-name="Abreve" unicode="&#x102;" horiz-adv-x="730" 
d="M69 7q-18 16 -18 44v350q0 145 83 227t231 82q97 0 168 -37t108.5 -107t37.5 -165v-350q0 -28 -18 -44t-48 -16t-48.5 16.5t-18.5 43.5v163h-362v-163q0 -27 -18.5 -43.5t-48.5 -16.5t-48 16zM546 317v87q0 100 -45.5 150.5t-135.5 50.5q-181 0 -181 -201v-87h362z
M224 812q-52 46 -52 124q0 28 16 43t45 15t45 -15t16 -43q0 -37 18.5 -57t52.5 -20t52.5 20t18.5 57q0 28 16 43t45 15t45 -15t16 -43q0 -78 -52 -124t-141 -46t-141 46z" />
    <glyph glyph-name="uni1EAE" unicode="&#x1eae;" horiz-adv-x="730" 
d="M69 7q-18 16 -18 44v350q0 145 83 227t231 82q97 0 168 -37t108.5 -107t37.5 -165v-350q0 -28 -18 -44t-48 -16t-48.5 16.5t-18.5 43.5v163h-362v-163q0 -27 -18.5 -43.5t-48.5 -16.5t-48 16zM546 317v87q0 100 -45.5 150.5t-135.5 50.5q-181 0 -181 -201v-87h362z
M320 990q0 13 6 23l64 108q8 14 20.5 21t25.5 7q18 0 34 -11q11 -8 17 -19t6 -23q0 -16 -12 -31l-84 -97q-16 -18 -36 -18q-14 0 -26 9q-15 12 -15 31zM225.5 808.5q-54.5 42.5 -54.5 117.5q0 28 15.5 43t44.5 15t44.5 -15t15.5 -43q0 -36 18.5 -51.5t54.5 -15.5t54.5 15.5
t18.5 51.5q0 28 15.5 43t44.5 15t44.5 -15t15.5 -43q0 -75 -54.5 -117.5t-138.5 -42.5t-138.5 42.5z" />
    <glyph glyph-name="uni1EB6" unicode="&#x1eb6;" horiz-adv-x="730" 
d="M69 7q-18 16 -18 44v350q0 145 83 227t231 82q97 0 168 -37t108.5 -107t37.5 -165v-350q0 -28 -18 -44t-48 -16t-48.5 16.5t-18.5 43.5v163h-362v-163q0 -27 -18.5 -43.5t-48.5 -16.5t-48 16zM546 317v87q0 100 -45.5 150.5t-135.5 50.5q-181 0 -181 -201v-87h362z
M305.5 -192q-21.5 20 -21.5 54q0 35 21.5 55t59.5 20q37 0 58.5 -20t21.5 -55q0 -34 -21.5 -54t-58.5 -20q-38 0 -59.5 20zM224 812q-52 46 -52 124q0 28 16 43t45 15t45 -15t16 -43q0 -37 18.5 -57t52.5 -20t52.5 20t18.5 57q0 28 16 43t45 15t45 -15t16 -43
q0 -78 -52 -124t-141 -46t-141 46z" />
    <glyph glyph-name="uni1EB0" unicode="&#x1eb0;" horiz-adv-x="730" 
d="M69 7q-18 16 -18 44v350q0 145 83 227t231 82q97 0 168 -37t108.5 -107t37.5 -165v-350q0 -28 -18 -44t-48 -16t-48.5 16.5t-18.5 43.5v163h-362v-163q0 -27 -18.5 -43.5t-48.5 -16.5t-48 16zM546 317v87q0 100 -45.5 150.5t-135.5 50.5q-181 0 -181 -201v-87h362z
M368 950q-20 0 -36 18l-84 97q-12 15 -12 31q0 12 6 23t17 19q16 11 34 11q13 0 25.5 -7t20.5 -21l64 -108q6 -10 6 -23q0 -19 -15 -31q-12 -9 -26 -9zM226.5 808.5q-54.5 42.5 -54.5 117.5q0 28 15.5 43t44.5 15t44.5 -15t15.5 -43q0 -36 18.5 -51.5t54.5 -15.5t54.5 15.5
t18.5 51.5q0 28 15.5 43t44.5 15t44.5 -15t15.5 -43q0 -75 -54.5 -117.5t-138.5 -42.5t-138.5 42.5z" />
    <glyph glyph-name="uni1EB2" unicode="&#x1eb2;" horiz-adv-x="730" 
d="M69 7q-18 16 -18 44v350q0 145 83 227t231 82q97 0 168 -37t108.5 -107t37.5 -165v-350q0 -28 -18 -44t-48 -16t-48.5 16.5t-18.5 43.5v163h-362v-163q0 -27 -18.5 -43.5t-48.5 -16.5t-48 16zM546 317v87q0 100 -45.5 150.5t-135.5 50.5q-181 0 -181 -201v-87h362z
M330.5 947.5q-13.5 8.5 -13.5 23.5v4q0 15 8.5 26t25.5 27q12 10 18 17.5t6 14.5q0 8 -5.5 13t-15.5 5q-17 0 -38 -21q-12 -12 -27 -12q-12 0 -24 9q-14 11 -14 25q0 9 7 19q15 21 45.5 35t69.5 14q53 0 79.5 -20t26.5 -53q0 -18 -10 -31.5t-29 -30.5q-13 -11 -19.5 -19
t-6.5 -17v-5q0 -15 -13 -23.5t-35 -8.5t-35.5 8.5zM226.5 808.5q-54.5 42.5 -54.5 117.5q0 28 15.5 43t44.5 15t44.5 -15t15.5 -43q0 -36 18.5 -51.5t54.5 -15.5t54.5 15.5t18.5 51.5q0 28 15.5 43t44.5 15t44.5 -15t15.5 -43q0 -75 -54.5 -117.5t-138.5 -42.5t-138.5 42.5z
" />
    <glyph glyph-name="uni1EB4" unicode="&#x1eb4;" horiz-adv-x="730" 
d="M69 7q-18 16 -18 44v350q0 145 83 227t231 82q97 0 168 -37t108.5 -107t37.5 -165v-350q0 -28 -18 -44t-48 -16t-48.5 16.5t-18.5 43.5v163h-362v-163q0 -27 -18.5 -43.5t-48.5 -16.5t-48 16zM546 317v87q0 100 -45.5 150.5t-135.5 50.5q-181 0 -181 -201v-87h362z
M189.5 1018.5q-11.5 9.5 -11.5 25.5q0 9 5 22q16 38 42 58.5t66 20.5q26 0 46 -8.5t48 -25.5q18 -11 27.5 -15.5t18.5 -4.5q13 0 21 7t16 23q14 30 39 30q19 0 30.5 -10t11.5 -26q0 -9 -5 -21q-17 -39 -42.5 -59.5t-65.5 -20.5q-24 0 -42.5 8t-41.5 23q-19 12 -30.5 17.5
t-24.5 5.5t-21 -6.5t-16 -23.5q-15 -29 -39 -29q-20 0 -31.5 9.5zM226.5 808.5q-54.5 42.5 -54.5 117.5q0 28 15.5 43t44.5 15t44.5 -15t15.5 -43q0 -36 18.5 -51.5t54.5 -15.5t54.5 15.5t18.5 51.5q0 28 15.5 43t44.5 15t44.5 -15t15.5 -43q0 -75 -54.5 -117.5
t-138.5 -42.5t-138.5 42.5z" />
    <glyph glyph-name="uni01CD" unicode="&#x1cd;" horiz-adv-x="730" 
d="M69 7q-18 16 -18 44v350q0 145 83 227t231 82q97 0 168 -37t108.5 -107t37.5 -165v-350q0 -28 -18 -44t-48 -16t-48.5 16.5t-18.5 43.5v163h-362v-163q0 -27 -18.5 -43.5t-48.5 -16.5t-48 16zM546 317v87q0 100 -45.5 150.5t-135.5 50.5q-181 0 -181 -201v-87h362z
M314 787l-105 126q-15 18 -15 37q0 23 21 39q17 12 33 12q24 0 45 -27l72 -100l72 100q21 27 45 27q16 0 33 -12q21 -16 21 -39q0 -19 -15 -37l-105 -126q-21 -24 -51 -24t-51 24z" />
    <glyph glyph-name="Acircumflex" unicode="&#xc2;" horiz-adv-x="730" 
d="M69 7q-18 16 -18 44v350q0 145 83 227t231 82q97 0 168 -37t108.5 -107t37.5 -165v-350q0 -28 -18 -44t-48 -16t-48.5 16.5t-18.5 43.5v163h-362v-163q0 -27 -18.5 -43.5t-48.5 -16.5t-48 16zM546 317v87q0 100 -45.5 150.5t-135.5 50.5q-181 0 -181 -201v-87h362z
M194 814q0 19 15 37l105 126q21 24 51 24t51 -24l105 -126q15 -18 15 -37q0 -22 -21 -39q-16 -12 -33 -12q-24 0 -45 27l-72 100l-72 -100q-21 -27 -45 -27q-17 0 -33 12q-21 17 -21 39z" />
    <glyph glyph-name="uni1EA4" unicode="&#x1ea4;" horiz-adv-x="730" 
d="M69 7q-18 16 -18 44v350q0 145 83 227t231 82q97 0 168 -37t108.5 -107t37.5 -165v-350q0 -28 -18 -44t-48 -16t-48.5 16.5t-18.5 43.5v163h-362v-163q0 -27 -18.5 -43.5t-48.5 -16.5t-48 16zM546 317v87q0 100 -45.5 150.5t-135.5 50.5q-181 0 -181 -201v-87h362z
M454 979q0 13 6 23l64 108q8 14 20.5 21t25.5 7q18 0 34 -11q11 -8 17 -19t6 -23q0 -16 -12 -31l-84 -97q-16 -18 -36 -18q-14 0 -26 9q-15 12 -15 31zM193 814q0 18 16 36l105 116q21 24 51 24t51 -24l105 -116q16 -18 16 -36q0 -23 -22 -40q-15 -12 -32 -12q-25 0 -46 27
l-72 90l-72 -90q-21 -27 -46 -27q-17 0 -32 12q-22 17 -22 40z" />
    <glyph glyph-name="uni1EAC" unicode="&#x1eac;" horiz-adv-x="730" 
d="M69 7q-18 16 -18 44v350q0 145 83 227t231 82q97 0 168 -37t108.5 -107t37.5 -165v-350q0 -28 -18 -44t-48 -16t-48.5 16.5t-18.5 43.5v163h-362v-163q0 -27 -18.5 -43.5t-48.5 -16.5t-48 16zM546 317v87q0 100 -45.5 150.5t-135.5 50.5q-181 0 -181 -201v-87h362z
M305.5 -192q-21.5 20 -21.5 54q0 35 21.5 55t59.5 20q37 0 58.5 -20t21.5 -55q0 -34 -21.5 -54t-58.5 -20q-38 0 -59.5 20zM194 814q0 19 15 37l105 126q21 24 51 24t51 -24l105 -126q15 -18 15 -37q0 -22 -21 -39q-16 -12 -33 -12q-24 0 -45 27l-72 100l-72 -100
q-21 -27 -45 -27q-17 0 -33 12q-21 17 -21 39z" />
    <glyph glyph-name="uni1EA6" unicode="&#x1ea6;" horiz-adv-x="730" 
d="M69 7q-18 16 -18 44v350q0 145 83 227t231 82q97 0 168 -37t108.5 -107t37.5 -165v-350q0 -28 -18 -44t-48 -16t-48.5 16.5t-18.5 43.5v163h-362v-163q0 -27 -18.5 -43.5t-48.5 -16.5t-48 16zM546 317v87q0 100 -45.5 150.5t-135.5 50.5q-181 0 -181 -201v-87h362z
M516 939q-20 0 -36 18l-84 97q-12 15 -12 31q0 12 6 23t17 19q16 11 34 11q13 0 25.5 -7t20.5 -21l64 -108q6 -10 6 -23q0 -19 -15 -31q-12 -9 -26 -9zM193 814q0 18 16 36l105 116q21 24 51 24t51 -24l105 -116q16 -18 16 -36q0 -23 -22 -40q-15 -12 -32 -12q-25 0 -46 27
l-72 90l-72 -90q-21 -27 -46 -27q-17 0 -32 12q-22 17 -22 40z" />
    <glyph glyph-name="uni1EA8" unicode="&#x1ea8;" horiz-adv-x="730" 
d="M69 7q-18 16 -18 44v350q0 145 83 227t231 82q97 0 168 -37t108.5 -107t37.5 -165v-350q0 -28 -18 -44t-48 -16t-48.5 16.5t-18.5 43.5v163h-362v-163q0 -27 -18.5 -43.5t-48.5 -16.5t-48 16zM546 317v87q0 100 -45.5 150.5t-135.5 50.5q-181 0 -181 -201v-87h362z
M469.5 936.5q-13.5 8.5 -13.5 23.5v4q0 15 8.5 26t25.5 27q12 10 18 17.5t6 14.5q0 8 -5.5 13t-15.5 5q-17 0 -38 -21q-12 -12 -27 -12q-12 0 -24 9q-14 11 -14 25q0 9 7 19q15 21 45.5 35t69.5 14q53 0 79.5 -20t26.5 -53q0 -18 -10 -31.5t-29 -30.5q-13 -11 -19.5 -19
t-6.5 -17v-5q0 -15 -13 -23.5t-35 -8.5t-35.5 8.5zM193 814q0 18 16 36l105 116q21 24 51 24t51 -24l105 -116q16 -18 16 -36q0 -23 -22 -40q-15 -12 -32 -12q-25 0 -46 27l-72 90l-72 -90q-21 -27 -46 -27q-17 0 -32 12q-22 17 -22 40z" />
    <glyph glyph-name="uni1EAA" unicode="&#x1eaa;" horiz-adv-x="730" 
d="M69 7q-18 16 -18 44v350q0 145 83 227t231 82q97 0 168 -37t108.5 -107t37.5 -165v-350q0 -28 -18 -44t-48 -16t-48.5 16.5t-18.5 43.5v163h-362v-163q0 -27 -18.5 -43.5t-48.5 -16.5t-48 16zM546 317v87q0 100 -45.5 150.5t-135.5 50.5q-181 0 -181 -201v-87h362z
M196.5 1007.5q-11.5 9.5 -11.5 25.5q0 9 5 22q16 38 42 58.5t66 20.5q26 0 46 -8.5t48 -25.5q18 -11 27.5 -15.5t18.5 -4.5q13 0 21 7t16 23q14 30 39 30q19 0 30.5 -10t11.5 -26q0 -9 -5 -21q-17 -39 -42.5 -59.5t-65.5 -20.5q-24 0 -42.5 8t-41.5 23q-19 12 -30.5 17.5
t-24.5 5.5t-21 -6.5t-16 -23.5q-15 -29 -39 -29q-20 0 -31.5 9.5zM193 814q0 18 16 36l105 116q21 24 51 24t51 -24l105 -116q16 -18 16 -36q0 -23 -22 -40q-15 -12 -32 -12q-25 0 -46 27l-72 90l-72 -90q-21 -27 -46 -27q-17 0 -32 12q-22 17 -22 40z" />
    <glyph glyph-name="Adieresis" unicode="&#xc4;" horiz-adv-x="730" 
d="M69 7q-18 16 -18 44v350q0 145 83 227t231 82q97 0 168 -37t108.5 -107t37.5 -165v-350q0 -28 -18 -44t-48 -16t-48.5 16.5t-18.5 43.5v163h-362v-163q0 -27 -18.5 -43.5t-48.5 -16.5t-48 16zM546 317v87q0 100 -45.5 150.5t-135.5 50.5q-181 0 -181 -201v-87h362z
M197 805.5q-20 19.5 -20 48.5t19.5 49t51.5 20q31 0 50.5 -19.5t19.5 -49.5q0 -28 -19.5 -48t-50.5 -20t-51 19.5zM433 805.5q-20 19.5 -20 48.5t19.5 49t51.5 20q31 0 50.5 -19.5t19.5 -49.5q0 -28 -19.5 -48t-50.5 -20t-51 19.5z" />
    <glyph glyph-name="uni1EA0" unicode="&#x1ea0;" horiz-adv-x="730" 
d="M69 7q-18 16 -18 44v350q0 145 83 227t231 82q97 0 168 -37t108.5 -107t37.5 -165v-350q0 -28 -18 -44t-48 -16t-48.5 16.5t-18.5 43.5v163h-362v-163q0 -27 -18.5 -43.5t-48.5 -16.5t-48 16zM546 317v87q0 100 -45.5 150.5t-135.5 50.5q-181 0 -181 -201v-87h362z
M305.5 -192q-21.5 20 -21.5 54q0 35 21.5 55t59.5 20q37 0 58.5 -20t21.5 -55q0 -34 -21.5 -54t-58.5 -20q-38 0 -59.5 20z" />
    <glyph glyph-name="Agrave" unicode="&#xc0;" horiz-adv-x="730" 
d="M69 7q-18 16 -18 44v350q0 145 83 227t231 82q97 0 168 -37t108.5 -107t37.5 -165v-350q0 -28 -18 -44t-48 -16t-48.5 16.5t-18.5 43.5v163h-362v-163q0 -27 -18.5 -43.5t-48.5 -16.5t-48 16zM546 317v87q0 100 -45.5 150.5t-135.5 50.5q-181 0 -181 -201v-87h362z
M363 768q-14 0 -25.5 6.5t-18.5 17.5l-81 139q-9 14 -9 27q0 30 38 48q16 8 33 8q35 0 50 -40l57 -146q3 -7 3 -16q0 -12 -6.5 -22.5t-17.5 -16.5q-9 -5 -23 -5z" />
    <glyph glyph-name="uni1EA2" unicode="&#x1ea2;" horiz-adv-x="730" 
d="M69 7q-18 16 -18 44v350q0 145 83 227t231 82q97 0 168 -37t108.5 -107t37.5 -165v-350q0 -28 -18 -44t-48 -16t-48.5 16.5t-18.5 43.5v163h-362v-163q0 -27 -18.5 -43.5t-48.5 -16.5t-48 16zM546 317v87q0 100 -45.5 150.5t-135.5 50.5q-181 0 -181 -201v-87h362z
M324.5 761.5q-15.5 9.5 -15.5 27.5v5q0 17 10.5 31t29.5 30q14 12 20.5 19.5t6.5 15.5q0 9 -6.5 15t-18.5 6q-10 0 -22 -6.5t-22 -17.5q-11 -12 -28 -12q-15 0 -29 10q-16 12 -16 28q0 10 8 21q19 24 52.5 40t78.5 16q61 0 91.5 -23t30.5 -62q0 -20 -11.5 -35.5t-32.5 -34.5
q-16 -14 -23 -22.5t-7 -17.5v-6q0 -18 -15.5 -27.5t-40.5 -9.5t-40.5 9.5z" />
    <glyph glyph-name="Amacron" unicode="&#x100;" horiz-adv-x="730" 
d="M69 7q-18 16 -18 44v350q0 145 83 227t231 82q97 0 168 -37t108.5 -107t37.5 -165v-350q0 -28 -18 -44t-48 -16t-48.5 16.5t-18.5 43.5v163h-362v-163q0 -27 -18.5 -43.5t-48.5 -16.5t-48 16zM546 317v87q0 100 -45.5 150.5t-135.5 50.5q-181 0 -181 -201v-87h362z
M185 814q0 22 12.5 31.5t39.5 9.5h256q27 0 39.5 -9.5t12.5 -31.5q0 -40 -52 -40h-256q-52 0 -52 40z" />
    <glyph glyph-name="Aogonek" unicode="&#x104;" horiz-adv-x="730" 
d="M718 -140q0 -14 -14 -28q-40 -40 -104 -40q-57 0 -93.5 24t-36.5 74q0 38 19 70t61 69q-4 9 -4 22v163h-362v-163q0 -27 -18.5 -43.5t-48.5 -16.5t-48 16t-18 44v350q0 145 83 227t231 82q97 0 168 -37t108.5 -107t37.5 -165v-350q0 -36 -30 -52l-2 -2l-20 -17
q-30 -25 -41 -39.5t-11 -36.5q0 -16 11.5 -24t25.5 -8q26 0 43 15q12 11 26 11q13 0 24 -11q13 -13 13 -27zM546 404q0 100 -45.5 150.5t-135.5 50.5q-181 0 -181 -201v-87h362v87z" />
    <glyph glyph-name="Aring" unicode="&#xc5;" horiz-adv-x="730" 
d="M69 7q-18 16 -18 44v350q0 145 83 227t231 82q97 0 168 -37t108.5 -107t37.5 -165v-350q0 -28 -18 -44t-48 -16t-48.5 16.5t-18.5 43.5v163h-362v-163q0 -27 -18.5 -43.5t-48.5 -16.5t-48 16zM546 317v87q0 100 -45.5 150.5t-135.5 50.5q-181 0 -181 -201v-87h362z
M273.5 784.5q-34.5 30.5 -34.5 79.5t34.5 79.5t91.5 30.5t90.5 -30.5t33.5 -79.5t-33.5 -79.5t-90.5 -30.5t-91.5 30.5zM398 831.5q12 11.5 12 32.5t-12 33t-33 12t-33 -12t-12 -33t12 -32.5t33 -11.5t33 11.5z" />
    <glyph glyph-name="Aringacute" unicode="&#x1fa;" horiz-adv-x="730" 
d="M69 7q-18 16 -18 44v350q0 145 83 227t231 82q97 0 168 -37t108.5 -107t37.5 -165v-350q0 -28 -18 -44t-48 -16t-48.5 16.5t-18.5 43.5v163h-362v-163q0 -27 -18.5 -43.5t-48.5 -16.5t-48 16zM546 317v87q0 100 -45.5 150.5t-135.5 50.5q-181 0 -181 -201v-87h362z
M273.5 784.5q-34.5 30.5 -34.5 79.5t34.5 79.5t91.5 30.5t90.5 -30.5t33.5 -79.5t-33.5 -79.5t-90.5 -30.5t-91.5 30.5zM398 831.5q12 11.5 12 32.5t-12 33t-33 12t-33 -12t-12 -33t12 -32.5t33 -11.5t33 11.5zM335.5 1023.5q-6.5 10.5 -6.5 22.5q0 9 3 16l57 146
q15 40 50 40q17 0 33 -8q38 -18 38 -48q0 -13 -9 -27l-81 -139q-7 -11 -18.5 -17.5t-25.5 -6.5t-23 5q-11 6 -17.5 16.5z" />
    <glyph glyph-name="Atilde" unicode="&#xc3;" horiz-adv-x="730" 
d="M69 7q-18 16 -18 44v350q0 145 83 227t231 82q97 0 168 -37t108.5 -107t37.5 -165v-350q0 -28 -18 -44t-48 -16t-48.5 16.5t-18.5 43.5v163h-362v-163q0 -27 -18.5 -43.5t-48.5 -16.5t-48 16zM546 317v87q0 100 -45.5 150.5t-135.5 50.5q-181 0 -181 -201v-87h362z
M177.5 809q-7.5 9 -7.5 22t5 23q18 41 45 62.5t69 21.5q27 0 49 -9.5t50 -26.5q4 -2 14.5 -8.5t18.5 -9.5t15 -3q13 0 22 7t17 25q16 32 41 32q20 0 32.5 -10.5t12.5 -27.5q0 -13 -5 -23q-18 -41 -45 -62.5t-69 -21.5q-25 0 -45 8.5t-45 24.5q-17 12 -30 18t-27 6
q-13 0 -22 -7t-17 -25q-16 -32 -41 -32q-8 0 -17 3q-13 4 -20.5 13z" />
    <glyph glyph-name="AE" unicode="&#xc6;" horiz-adv-x="1111" 
d="M69 7q-18 16 -18 44v350q0 145 83 227t231 82q128 0 209 -79q16 32 46.5 50.5t69.5 18.5h291q30 0 46 -13.5t16 -38.5q0 -24 -16.5 -37.5t-45.5 -13.5h-268q-20 0 -31.5 -13t-11.5 -36v-139h235q30 0 46 -13.5t16 -38.5q0 -24 -16.5 -37.5t-45.5 -13.5h-235v-154
q0 -23 11.5 -36t31.5 -13h290q30 0 46 -13.5t16 -38.5q0 -24 -16.5 -37.5t-45.5 -13.5h-306q-74 0 -112.5 39t-38.5 113v62h-362v-163q0 -27 -18.5 -43.5t-48.5 -16.5t-48 16zM546 317v87q0 100 -45.5 150.5t-135.5 50.5q-181 0 -181 -201v-87h362z" />
    <glyph glyph-name="AEacute" unicode="&#x1fc;" horiz-adv-x="1111" 
d="M69 7q-18 16 -18 44v350q0 145 83 227t231 82q128 0 209 -79q16 32 46.5 50.5t69.5 18.5h291q30 0 46 -13.5t16 -38.5q0 -24 -16.5 -37.5t-45.5 -13.5h-268q-20 0 -31.5 -13t-11.5 -36v-139h235q30 0 46 -13.5t16 -38.5q0 -24 -16.5 -37.5t-45.5 -13.5h-235v-154
q0 -23 11.5 -36t31.5 -13h290q30 0 46 -13.5t16 -38.5q0 -24 -16.5 -37.5t-45.5 -13.5h-306q-74 0 -112.5 39t-38.5 113v62h-362v-163q0 -27 -18.5 -43.5t-48.5 -16.5t-48 16zM546 317v87q0 100 -45.5 150.5t-135.5 50.5q-181 0 -181 -201v-87h362zM515.5 789.5
q-6.5 10.5 -6.5 22.5q0 9 3 16l57 146q15 40 50 40q17 0 33 -8q38 -18 38 -48q0 -13 -9 -27l-81 -139q-7 -11 -18.5 -17.5t-25.5 -6.5t-23 5q-11 6 -17.5 16.5z" />
    <glyph glyph-name="B" unicode="B" horiz-adv-x="740" 
d="M98 40q-42 40 -42 112v400q0 70 40.5 109t112.5 39h231q116 0 179 -49t63 -142q0 -46 -27 -85.5t-70 -59.5v-1q48 -19 78.5 -60.5t30.5 -89.5q0 -100 -64.5 -156.5t-177.5 -56.5h-236q-76 0 -118 40zM440 411q51 0 79.5 25t28.5 72q0 46 -27 68t-81 22h-210
q-20 0 -31.5 -13t-11.5 -36v-138h253zM440 102q120 0 120 109q0 47 -31.5 73t-88.5 26h-253v-159q0 -23 11.5 -36t31.5 -13h210z" />
    <glyph glyph-name="C" unicode="C" horiz-adv-x="773" 
d="M217 33q-83 43 -127 124t-44 192t44 192.5t126.5 125t194.5 43.5q93 0 172 -32t117 -85q12 -16 12 -33q0 -25 -27 -45q-12 -9 -30 -9q-15 0 -30 6.5t-25 18.5q-34 39 -79 56.5t-110 17.5q-109 0 -170 -67.5t-61 -188.5q0 -120 61.5 -187t171.5 -67q126 0 201 74
q31 29 57 29q18 0 33 -12q23 -20 23 -44q0 -18 -13 -35q-43 -55 -122.5 -86t-178.5 -31q-113 0 -196 43z" />
    <glyph glyph-name="Cacute" unicode="&#x106;" horiz-adv-x="773" 
d="M217 33q-83 43 -127 124t-44 192t44 192.5t126.5 125t194.5 43.5q93 0 172 -32t117 -85q12 -16 12 -33q0 -25 -27 -45q-12 -9 -30 -9q-15 0 -30 6.5t-25 18.5q-34 39 -79 56.5t-110 17.5q-109 0 -170 -67.5t-61 -188.5q0 -120 61.5 -187t171.5 -67q126 0 201 74
q31 29 57 29q18 0 33 -12q23 -20 23 -44q0 -18 -13 -35q-43 -55 -122.5 -86t-178.5 -31q-113 0 -196 43zM397.5 789.5q-6.5 10.5 -6.5 22.5q0 9 3 16l57 146q15 40 50 40q17 0 33 -8q38 -18 38 -48q0 -13 -9 -27l-81 -139q-7 -11 -18.5 -17.5t-25.5 -6.5t-23 5
q-11 6 -17.5 16.5z" />
    <glyph glyph-name="Ccaron" unicode="&#x10c;" horiz-adv-x="773" 
d="M217 33q-83 43 -127 124t-44 192t44 192.5t126.5 125t194.5 43.5q93 0 172 -32t117 -85q12 -16 12 -33q0 -25 -27 -45q-12 -9 -30 -9q-15 0 -30 6.5t-25 18.5q-34 39 -79 56.5t-110 17.5q-109 0 -170 -67.5t-61 -188.5q0 -120 61.5 -187t171.5 -67q126 0 201 74
q31 29 57 29q18 0 33 -12q23 -20 23 -44q0 -18 -13 -35q-43 -55 -122.5 -86t-178.5 -31q-113 0 -196 43zM376 787l-105 126q-15 18 -15 37q0 23 21 39q17 12 33 12q24 0 45 -27l72 -100l72 100q21 27 45 27q16 0 33 -12q21 -16 21 -39q0 -19 -15 -37l-105 -126
q-21 -24 -51 -24t-51 24z" />
    <glyph glyph-name="Ccedilla" unicode="&#xc7;" horiz-adv-x="773" 
d="M727 142q0 -18 -13 -35q-38 -49 -105 -79t-152 -36q0 -1 -2 -5l-18 -34q42 -3 66.5 -24.5t24.5 -54.5q0 -38 -29 -65t-86 -27q-45 0 -77.5 15t-51.5 41q-8 11 -8 21q0 13 17 29q13 11 24 11q14 0 27 -16q11 -15 27.5 -22t31.5 -7q17 0 27 6.5t10 19.5q0 32 -43 28
q-21 -2 -37 9t-16 28q0 8 4 16l15 31q-149 14 -233 108.5t-84 248.5q0 111 44 192.5t126.5 125t194.5 43.5q93 0 172 -32t117 -85q12 -16 12 -33q0 -25 -27 -45q-12 -9 -30 -9q-15 0 -30 6.5t-25 18.5q-34 39 -79 56.5t-110 17.5q-109 0 -170 -67.5t-61 -188.5
q0 -120 61.5 -187t171.5 -67q126 0 201 74q31 29 57 29q18 0 33 -12q23 -20 23 -44z" />
    <glyph glyph-name="Ccircumflex" unicode="&#x108;" horiz-adv-x="773" 
d="M217 33q-83 43 -127 124t-44 192t44 192.5t126.5 125t194.5 43.5q93 0 172 -32t117 -85q12 -16 12 -33q0 -25 -27 -45q-12 -9 -30 -9q-15 0 -30 6.5t-25 18.5q-34 39 -79 56.5t-110 17.5q-109 0 -170 -67.5t-61 -188.5q0 -120 61.5 -187t171.5 -67q126 0 201 74
q31 29 57 29q18 0 33 -12q23 -20 23 -44q0 -18 -13 -35q-43 -55 -122.5 -86t-178.5 -31q-113 0 -196 43zM256 814q0 19 15 37l105 126q21 24 51 24t51 -24l105 -126q15 -18 15 -37q0 -22 -21 -39q-16 -12 -33 -12q-24 0 -45 27l-72 100l-72 -100q-21 -27 -45 -27
q-17 0 -33 12q-21 17 -21 39z" />
    <glyph glyph-name="Cdotaccent" unicode="&#x10a;" horiz-adv-x="773" 
d="M217 33q-83 43 -127 124t-44 192t44 192.5t126.5 125t194.5 43.5q93 0 172 -32t117 -85q12 -16 12 -33q0 -25 -27 -45q-12 -9 -30 -9q-15 0 -30 6.5t-25 18.5q-34 39 -79 56.5t-110 17.5q-109 0 -170 -67.5t-61 -188.5q0 -120 61.5 -187t171.5 -67q126 0 201 74
q31 29 57 29q18 0 33 -12q23 -20 23 -44q0 -18 -13 -35q-43 -55 -122.5 -86t-178.5 -31q-113 0 -196 43zM369 798.5q-23 21.5 -23 52.5q0 32 23 53.5t58 21.5q34 0 57 -21.5t23 -53.5q0 -31 -23 -52.5t-57 -21.5q-35 0 -58 21.5z" />
    <glyph glyph-name="D" unicode="D" horiz-adv-x="767" 
d="M98 40q-42 40 -42 112v400q0 70 40.5 109t112.5 39h140q115 0 199 -42t128.5 -121t44.5 -188t-44.5 -187.5t-128 -120t-199.5 -41.5h-133q-76 0 -118 40zM339 103q125 0 186 60.5t61 185.5t-61.5 186.5t-185.5 61.5h-107q-20 0 -31.5 -13t-11.5 -36v-396q0 -23 11.5 -36
t31.5 -13h107z" />
    <glyph glyph-name="Eth" unicode="&#xd0;" horiz-adv-x="829" 
d="M166 40q-42 40 -42 112v146h-39q-30 0 -47.5 13.5t-17.5 37.5q0 25 17 38.5t48 13.5h39v151q0 70 40.5 109t112.5 39h140q115 0 199 -42t128.5 -121t44.5 -188t-44.5 -187.5t-128 -120t-199.5 -41.5h-133q-76 0 -118 40zM407 103q125 0 186 60.5t61 185.5t-61.5 186.5
t-185.5 61.5h-107q-20 0 -31.5 -13t-11.5 -36v-147h154q31 0 48 -13.5t17 -38.5q0 -24 -17.5 -37.5t-47.5 -13.5h-154v-146q0 -23 11.5 -36t31.5 -13h107z" />
    <glyph glyph-name="Dcaron" unicode="&#x10e;" horiz-adv-x="767" 
d="M98 40q-42 40 -42 112v400q0 70 40.5 109t112.5 39h140q115 0 199 -42t128.5 -121t44.5 -188t-44.5 -187.5t-128 -120t-199.5 -41.5h-133q-76 0 -118 40zM339 103q125 0 186 60.5t61 185.5t-61.5 186.5t-185.5 61.5h-107q-20 0 -31.5 -13t-11.5 -36v-396q0 -23 11.5 -36
t31.5 -13h107zM313 787l-105 126q-15 18 -15 37q0 23 21 39q17 12 33 12q24 0 45 -27l72 -100l72 100q21 27 45 27q16 0 33 -12q21 -16 21 -39q0 -19 -15 -37l-105 -126q-21 -24 -51 -24t-51 24z" />
    <glyph glyph-name="Dcroat" unicode="&#x110;" horiz-adv-x="829" 
d="M166 40q-42 40 -42 112v146h-39q-30 0 -47.5 13.5t-17.5 37.5q0 25 17 38.5t48 13.5h39v151q0 70 40.5 109t112.5 39h140q115 0 199 -42t128.5 -121t44.5 -188t-44.5 -187.5t-128 -120t-199.5 -41.5h-133q-76 0 -118 40zM407 103q125 0 186 60.5t61 185.5t-61.5 186.5
t-185.5 61.5h-107q-20 0 -31.5 -13t-11.5 -36v-147h154q31 0 48 -13.5t17 -38.5q0 -24 -17.5 -37.5t-47.5 -13.5h-154v-146q0 -23 11.5 -36t31.5 -13h107z" />
    <glyph glyph-name="uni1E0C" unicode="&#x1e0c;" horiz-adv-x="767" 
d="M98 40q-42 40 -42 112v400q0 70 40.5 109t112.5 39h140q115 0 199 -42t128.5 -121t44.5 -188t-44.5 -187.5t-128 -120t-199.5 -41.5h-133q-76 0 -118 40zM339 103q125 0 186 60.5t61 185.5t-61.5 186.5t-185.5 61.5h-107q-20 0 -31.5 -13t-11.5 -36v-396q0 -23 11.5 -36
t31.5 -13h107zM324.5 -192q-21.5 20 -21.5 54q0 35 21.5 55t59.5 20q37 0 58.5 -20t21.5 -55q0 -34 -21.5 -54t-58.5 -20q-38 0 -59.5 20z" />
    <glyph glyph-name="uni1E0E" unicode="&#x1e0e;" horiz-adv-x="767" 
d="M98 40q-42 40 -42 112v400q0 70 40.5 109t112.5 39h140q115 0 199 -42t128.5 -121t44.5 -188t-44.5 -187.5t-128 -120t-199.5 -41.5h-133q-76 0 -118 40zM339 103q125 0 186 60.5t61 185.5t-61.5 186.5t-185.5 61.5h-107q-20 0 -31.5 -13t-11.5 -36v-396q0 -23 11.5 -36
t31.5 -13h107zM204 -124q0 22 12.5 31.5t39.5 9.5h256q27 0 39.5 -9.5t12.5 -31.5q0 -40 -52 -40h-256q-52 0 -52 40z" />
    <glyph glyph-name="E" unicode="E" horiz-adv-x="650" 
d="M98 40q-42 40 -42 112v400q0 70 40.5 109t112.5 39h311q30 0 46 -13.5t16 -38.5q0 -24 -16.5 -37.5t-45.5 -13.5h-288q-20 0 -31.5 -13t-11.5 -36v-139h255q30 0 46 -13.5t16 -38.5q0 -24 -16.5 -37.5t-45.5 -13.5h-255v-154q0 -23 11.5 -36t31.5 -13h310q30 0 46 -13.5
t16 -38.5q0 -24 -16.5 -37.5t-45.5 -13.5h-326q-76 0 -118 40z" />
    <glyph glyph-name="Eacute" unicode="&#xc9;" horiz-adv-x="650" 
d="M98 40q-42 40 -42 112v400q0 70 40.5 109t112.5 39h311q30 0 46 -13.5t16 -38.5q0 -24 -16.5 -37.5t-45.5 -13.5h-288q-20 0 -31.5 -13t-11.5 -36v-139h255q30 0 46 -13.5t16 -38.5q0 -24 -16.5 -37.5t-45.5 -13.5h-255v-154q0 -23 11.5 -36t31.5 -13h310q30 0 46 -13.5
t16 -38.5q0 -24 -16.5 -37.5t-45.5 -13.5h-326q-76 0 -118 40zM313.5 789.5q-6.5 10.5 -6.5 22.5q0 9 3 16l57 146q15 40 50 40q17 0 33 -8q38 -18 38 -48q0 -13 -9 -27l-81 -139q-7 -11 -18.5 -17.5t-25.5 -6.5t-23 5q-11 6 -17.5 16.5z" />
    <glyph glyph-name="Ebreve" unicode="&#x114;" horiz-adv-x="650" 
d="M98 40q-42 40 -42 112v400q0 70 40.5 109t112.5 39h311q30 0 46 -13.5t16 -38.5q0 -24 -16.5 -37.5t-45.5 -13.5h-288q-20 0 -31.5 -13t-11.5 -36v-139h255q30 0 46 -13.5t16 -38.5q0 -24 -16.5 -37.5t-45.5 -13.5h-255v-154q0 -23 11.5 -36t31.5 -13h310q30 0 46 -13.5
t16 -38.5q0 -24 -16.5 -37.5t-45.5 -13.5h-326q-76 0 -118 40zM202 812q-52 46 -52 124q0 28 16 43t45 15t45 -15t16 -43q0 -37 18.5 -57t52.5 -20t52.5 20t18.5 57q0 28 16 43t45 15t45 -15t16 -43q0 -78 -52 -124t-141 -46t-141 46z" />
    <glyph glyph-name="Ecaron" unicode="&#x11a;" horiz-adv-x="650" 
d="M98 40q-42 40 -42 112v400q0 70 40.5 109t112.5 39h311q30 0 46 -13.5t16 -38.5q0 -24 -16.5 -37.5t-45.5 -13.5h-288q-20 0 -31.5 -13t-11.5 -36v-139h255q30 0 46 -13.5t16 -38.5q0 -24 -16.5 -37.5t-45.5 -13.5h-255v-154q0 -23 11.5 -36t31.5 -13h310q30 0 46 -13.5
t16 -38.5q0 -24 -16.5 -37.5t-45.5 -13.5h-326q-76 0 -118 40zM292 787l-105 126q-15 18 -15 37q0 23 21 39q17 12 33 12q24 0 45 -27l72 -100l72 100q21 27 45 27q17 0 33 -12q21 -16 21 -39q0 -19 -15 -37l-105 -126q-21 -24 -51 -24t-51 24z" />
    <glyph glyph-name="Ecircumflex" unicode="&#xca;" horiz-adv-x="650" 
d="M98 40q-42 40 -42 112v400q0 70 40.5 109t112.5 39h311q30 0 46 -13.5t16 -38.5q0 -24 -16.5 -37.5t-45.5 -13.5h-288q-20 0 -31.5 -13t-11.5 -36v-139h255q30 0 46 -13.5t16 -38.5q0 -24 -16.5 -37.5t-45.5 -13.5h-255v-154q0 -23 11.5 -36t31.5 -13h310q30 0 46 -13.5
t16 -38.5q0 -24 -16.5 -37.5t-45.5 -13.5h-326q-76 0 -118 40zM172 814q0 19 15 37l105 126q21 24 51 24t51 -24l105 -126q15 -18 15 -37q0 -22 -21 -39q-17 -12 -33 -12q-24 0 -45 27l-72 100l-72 -100q-21 -27 -45 -27q-16 0 -33 12q-21 17 -21 39z" />
    <glyph glyph-name="uni1EBE" unicode="&#x1ebe;" horiz-adv-x="650" 
d="M98 40q-42 40 -42 112v400q0 70 40.5 109t112.5 39h311q30 0 46 -13.5t16 -38.5q0 -24 -16.5 -37.5t-45.5 -13.5h-288q-20 0 -31.5 -13t-11.5 -36v-139h255q30 0 46 -13.5t16 -38.5q0 -24 -16.5 -37.5t-45.5 -13.5h-255v-154q0 -23 11.5 -36t31.5 -13h310q30 0 46 -13.5
t16 -38.5q0 -24 -16.5 -37.5t-45.5 -13.5h-326q-76 0 -118 40zM432 979q0 13 6 23l64 108q8 14 20.5 21t25.5 7q18 0 34 -11q11 -8 17 -19t6 -23q0 -16 -12 -31l-84 -97q-16 -18 -36 -18q-14 0 -26 9q-15 12 -15 31zM171 814q0 18 16 36l105 116q21 24 51 24t51 -24
l105 -116q16 -18 16 -36q0 -23 -22 -40q-15 -12 -32 -12q-25 0 -46 27l-72 90l-72 -90q-21 -27 -46 -27q-17 0 -32 12q-22 17 -22 40z" />
    <glyph glyph-name="uni1EC6" unicode="&#x1ec6;" horiz-adv-x="650" 
d="M98 40q-42 40 -42 112v400q0 70 40.5 109t112.5 39h311q30 0 46 -13.5t16 -38.5q0 -24 -16.5 -37.5t-45.5 -13.5h-288q-20 0 -31.5 -13t-11.5 -36v-139h255q30 0 46 -13.5t16 -38.5q0 -24 -16.5 -37.5t-45.5 -13.5h-255v-154q0 -23 11.5 -36t31.5 -13h310q30 0 46 -13.5
t16 -38.5q0 -24 -16.5 -37.5t-45.5 -13.5h-326q-76 0 -118 40zM298.5 -192q-21.5 20 -21.5 54q0 35 21.5 55t59.5 20q37 0 58.5 -20t21.5 -55q0 -34 -21.5 -54t-58.5 -20q-38 0 -59.5 20zM172 814q0 19 15 37l105 126q21 24 51 24t51 -24l105 -126q15 -18 15 -37
q0 -22 -21 -39q-17 -12 -33 -12q-24 0 -45 27l-72 100l-72 -100q-21 -27 -45 -27q-16 0 -33 12q-21 17 -21 39z" />
    <glyph glyph-name="uni1EC0" unicode="&#x1ec0;" horiz-adv-x="650" 
d="M98 40q-42 40 -42 112v400q0 70 40.5 109t112.5 39h311q30 0 46 -13.5t16 -38.5q0 -24 -16.5 -37.5t-45.5 -13.5h-288q-20 0 -31.5 -13t-11.5 -36v-139h255q30 0 46 -13.5t16 -38.5q0 -24 -16.5 -37.5t-45.5 -13.5h-255v-154q0 -23 11.5 -36t31.5 -13h310q30 0 46 -13.5
t16 -38.5q0 -24 -16.5 -37.5t-45.5 -13.5h-326q-76 0 -118 40zM494 939q-20 0 -36 18l-84 97q-12 15 -12 31q0 12 6 23t17 19q16 11 34 11q13 0 25.5 -7t20.5 -21l64 -108q6 -10 6 -23q0 -19 -15 -31q-12 -9 -26 -9zM171 814q0 18 16 36l105 116q21 24 51 24t51 -24
l105 -116q16 -18 16 -36q0 -23 -22 -40q-15 -12 -32 -12q-25 0 -46 27l-72 90l-72 -90q-21 -27 -46 -27q-17 0 -32 12q-22 17 -22 40z" />
    <glyph glyph-name="uni1EC2" unicode="&#x1ec2;" horiz-adv-x="650" 
d="M98 40q-42 40 -42 112v400q0 70 40.5 109t112.5 39h311q30 0 46 -13.5t16 -38.5q0 -24 -16.5 -37.5t-45.5 -13.5h-288q-20 0 -31.5 -13t-11.5 -36v-139h255q30 0 46 -13.5t16 -38.5q0 -24 -16.5 -37.5t-45.5 -13.5h-255v-154q0 -23 11.5 -36t31.5 -13h310q30 0 46 -13.5
t16 -38.5q0 -24 -16.5 -37.5t-45.5 -13.5h-326q-76 0 -118 40zM447.5 936.5q-13.5 8.5 -13.5 23.5v4q0 15 8.5 26t25.5 27q12 10 18 17.5t6 14.5q0 8 -5.5 13t-15.5 5q-17 0 -38 -21q-12 -12 -27 -12q-12 0 -24 9q-14 11 -14 25q0 9 7 19q15 21 45.5 35t69.5 14
q53 0 79.5 -20t26.5 -53q0 -18 -10 -31.5t-29 -30.5q-13 -11 -19.5 -19t-6.5 -17v-5q0 -15 -13 -23.5t-35 -8.5t-35.5 8.5zM171 814q0 18 16 36l105 116q21 24 51 24t51 -24l105 -116q16 -18 16 -36q0 -23 -22 -40q-15 -12 -32 -12q-25 0 -46 27l-72 90l-72 -90
q-21 -27 -46 -27q-17 0 -32 12q-22 17 -22 40z" />
    <glyph glyph-name="uni1EC4" unicode="&#x1ec4;" horiz-adv-x="650" 
d="M98 40q-42 40 -42 112v400q0 70 40.5 109t112.5 39h311q30 0 46 -13.5t16 -38.5q0 -24 -16.5 -37.5t-45.5 -13.5h-288q-20 0 -31.5 -13t-11.5 -36v-139h255q30 0 46 -13.5t16 -38.5q0 -24 -16.5 -37.5t-45.5 -13.5h-255v-154q0 -23 11.5 -36t31.5 -13h310q30 0 46 -13.5
t16 -38.5q0 -24 -16.5 -37.5t-45.5 -13.5h-326q-76 0 -118 40zM174.5 1007.5q-11.5 9.5 -11.5 25.5q0 9 5 22q16 38 42 58.5t66 20.5q26 0 46 -8.5t48 -25.5q18 -11 27.5 -15.5t18.5 -4.5q13 0 21 7t16 23q14 30 39 30q19 0 30.5 -10t11.5 -26q0 -9 -5 -21
q-17 -39 -42.5 -59.5t-65.5 -20.5q-24 0 -42.5 8t-41.5 23q-19 12 -30.5 17.5t-24.5 5.5t-21 -6.5t-16 -23.5q-15 -29 -39 -29q-20 0 -31.5 9.5zM171 814q0 18 16 36l105 116q21 24 51 24t51 -24l105 -116q16 -18 16 -36q0 -23 -22 -40q-15 -12 -32 -12q-25 0 -46 27l-72 90
l-72 -90q-21 -27 -46 -27q-17 0 -32 12q-22 17 -22 40z" />
    <glyph glyph-name="Edieresis" unicode="&#xcb;" horiz-adv-x="650" 
d="M98 40q-42 40 -42 112v400q0 70 40.5 109t112.5 39h311q30 0 46 -13.5t16 -38.5q0 -24 -16.5 -37.5t-45.5 -13.5h-288q-20 0 -31.5 -13t-11.5 -36v-139h255q30 0 46 -13.5t16 -38.5q0 -24 -16.5 -37.5t-45.5 -13.5h-255v-154q0 -23 11.5 -36t31.5 -13h310q30 0 46 -13.5
t16 -38.5q0 -24 -16.5 -37.5t-45.5 -13.5h-326q-76 0 -118 40zM175 805.5q-20 19.5 -20 48.5t19.5 49t51.5 20q31 0 50.5 -19.5t19.5 -49.5q0 -28 -19.5 -48t-50.5 -20t-51 19.5zM411 805.5q-20 19.5 -20 48.5t19.5 49t51.5 20q31 0 50.5 -19.5t19.5 -49.5q0 -28 -19.5 -48
t-50.5 -20t-51 19.5z" />
    <glyph glyph-name="Edotaccent" unicode="&#x116;" horiz-adv-x="650" 
d="M98 40q-42 40 -42 112v400q0 70 40.5 109t112.5 39h311q30 0 46 -13.5t16 -38.5q0 -24 -16.5 -37.5t-45.5 -13.5h-288q-20 0 -31.5 -13t-11.5 -36v-139h255q30 0 46 -13.5t16 -38.5q0 -24 -16.5 -37.5t-45.5 -13.5h-255v-154q0 -23 11.5 -36t31.5 -13h310q30 0 46 -13.5
t16 -38.5q0 -24 -16.5 -37.5t-45.5 -13.5h-326q-76 0 -118 40zM285 798.5q-23 21.5 -23 52.5q0 32 23 53.5t58 21.5q34 0 57 -21.5t23 -53.5q0 -31 -23 -52.5t-57 -21.5q-35 0 -58 21.5z" />
    <glyph glyph-name="uni1EB8" unicode="&#x1eb8;" horiz-adv-x="650" 
d="M98 40q-42 40 -42 112v400q0 70 40.5 109t112.5 39h311q30 0 46 -13.5t16 -38.5q0 -24 -16.5 -37.5t-45.5 -13.5h-288q-20 0 -31.5 -13t-11.5 -36v-139h255q30 0 46 -13.5t16 -38.5q0 -24 -16.5 -37.5t-45.5 -13.5h-255v-154q0 -23 11.5 -36t31.5 -13h310q30 0 46 -13.5
t16 -38.5q0 -24 -16.5 -37.5t-45.5 -13.5h-326q-76 0 -118 40zM298.5 -192q-21.5 20 -21.5 54q0 35 21.5 55t59.5 20q37 0 58.5 -20t21.5 -55q0 -34 -21.5 -54t-58.5 -20q-38 0 -59.5 20z" />
    <glyph glyph-name="Egrave" unicode="&#xc8;" horiz-adv-x="650" 
d="M98 40q-42 40 -42 112v400q0 70 40.5 109t112.5 39h311q30 0 46 -13.5t16 -38.5q0 -24 -16.5 -37.5t-45.5 -13.5h-288q-20 0 -31.5 -13t-11.5 -36v-139h255q30 0 46 -13.5t16 -38.5q0 -24 -16.5 -37.5t-45.5 -13.5h-255v-154q0 -23 11.5 -36t31.5 -13h310q30 0 46 -13.5
t16 -38.5q0 -24 -16.5 -37.5t-45.5 -13.5h-326q-76 0 -118 40zM358 768q-14 0 -25.5 6.5t-18.5 17.5l-81 139q-9 14 -9 27q0 30 38 48q16 8 33 8q35 0 50 -40l57 -146q3 -7 3 -16q0 -12 -6.5 -22.5t-17.5 -16.5q-9 -5 -23 -5z" />
    <glyph glyph-name="uni1EBA" unicode="&#x1eba;" horiz-adv-x="650" 
d="M98 40q-42 40 -42 112v400q0 70 40.5 109t112.5 39h311q30 0 46 -13.5t16 -38.5q0 -24 -16.5 -37.5t-45.5 -13.5h-288q-20 0 -31.5 -13t-11.5 -36v-139h255q30 0 46 -13.5t16 -38.5q0 -24 -16.5 -37.5t-45.5 -13.5h-255v-154q0 -23 11.5 -36t31.5 -13h310q30 0 46 -13.5
t16 -38.5q0 -24 -16.5 -37.5t-45.5 -13.5h-326q-76 0 -118 40zM302.5 761.5q-15.5 9.5 -15.5 27.5v5q0 17 10.5 31t29.5 30q14 12 20.5 19.5t6.5 15.5q0 9 -6.5 15t-18.5 6q-10 0 -22 -6.5t-22 -17.5q-11 -12 -28 -12q-15 0 -29 10q-16 12 -16 28q0 10 8 21q19 24 52.5 40
t78.5 16q61 0 91.5 -23t30.5 -62q0 -20 -11.5 -35.5t-32.5 -34.5q-16 -14 -23 -22.5t-7 -17.5v-6q0 -18 -15.5 -27.5t-40.5 -9.5t-40.5 9.5z" />
    <glyph glyph-name="Emacron" unicode="&#x112;" horiz-adv-x="650" 
d="M98 40q-42 40 -42 112v400q0 70 40.5 109t112.5 39h311q30 0 46 -13.5t16 -38.5q0 -24 -16.5 -37.5t-45.5 -13.5h-288q-20 0 -31.5 -13t-11.5 -36v-139h255q30 0 46 -13.5t16 -38.5q0 -24 -16.5 -37.5t-45.5 -13.5h-255v-154q0 -23 11.5 -36t31.5 -13h310q30 0 46 -13.5
t16 -38.5q0 -24 -16.5 -37.5t-45.5 -13.5h-326q-76 0 -118 40zM160 814q0 22 12.5 31.5t39.5 9.5h256q27 0 39.5 -9.5t12.5 -31.5q0 -40 -52 -40h-256q-52 0 -52 40z" />
    <glyph glyph-name="Eogonek" unicode="&#x118;" horiz-adv-x="650" 
d="M611 -140q0 -14 -14 -28q-40 -40 -104 -40q-57 0 -93.5 24t-36.5 74q0 30 12 56t37 54h-196q-76 0 -118 40t-42 112v400q0 70 40.5 109t112.5 39h311q30 0 46 -13.5t16 -38.5q0 -24 -16.5 -37.5t-45.5 -13.5h-288q-20 0 -31.5 -13t-11.5 -36v-139h255q30 0 46 -13.5
t16 -38.5q0 -24 -16.5 -37.5t-45.5 -13.5h-255v-154q0 -23 11.5 -36t31.5 -13h310q30 0 46 -13.5t16 -38.5q0 -24 -16 -37.5t-45 -13.5l-3 -3l-20 -17q-30 -25 -41 -39.5t-11 -36.5q0 -16 11.5 -24t25.5 -8q27 0 43 15q12 11 26 11q13 0 24 -11q13 -13 13 -27z" />
    <glyph glyph-name="uni1EBC" unicode="&#x1ebc;" horiz-adv-x="650" 
d="M98 40q-42 40 -42 112v400q0 70 40.5 109t112.5 39h311q30 0 46 -13.5t16 -38.5q0 -24 -16.5 -37.5t-45.5 -13.5h-288q-20 0 -31.5 -13t-11.5 -36v-139h255q30 0 46 -13.5t16 -38.5q0 -24 -16.5 -37.5t-45.5 -13.5h-255v-154q0 -23 11.5 -36t31.5 -13h310q30 0 46 -13.5
t16 -38.5q0 -24 -16.5 -37.5t-45.5 -13.5h-326q-76 0 -118 40zM154.5 809q-7.5 9 -7.5 22t5 23q18 41 45 62.5t69 21.5q27 0 49 -9.5t50 -26.5q4 -2 14.5 -8.5t18.5 -9.5t15 -3q13 0 22 7t17 25q16 32 41 32q20 0 32.5 -10.5t12.5 -27.5q0 -13 -5 -23q-18 -41 -45 -62.5
t-69 -21.5q-25 0 -45 8.5t-45 24.5q-17 12 -30 18t-27 6q-13 0 -22 -7t-17 -25q-16 -32 -41 -32q-8 0 -17 3q-13 4 -20.5 13z" />
    <glyph glyph-name="F" unicode="F" horiz-adv-x="618" 
d="M74 6q-18 16 -18 44v502q0 70 40.5 109t112.5 39h311q30 0 46 -13.5t16 -38.5q0 -24 -16.5 -37.5t-45.5 -13.5h-288q-20 0 -31.5 -13t-11.5 -36v-149h255q30 0 46 -13.5t16 -38.5q0 -24 -16.5 -37.5t-45.5 -13.5h-255v-246q0 -27 -18.5 -43.5t-48.5 -16.5t-48 16z" />
    <glyph glyph-name="G" unicode="G" horiz-adv-x="786" 
d="M217 33q-83 43 -127 124t-44 192t44 192.5t126.5 125t194.5 43.5q93 0 172 -32t117 -85q12 -16 12 -33q0 -25 -27 -45q-12 -9 -30 -9q-15 0 -30 6.5t-25 18.5q-34 39 -79 56.5t-110 17.5q-109 0 -170 -67.5t-61 -188.5q0 -120 61.5 -187t171.5 -67q91 0 142.5 35t51.5 97
v22q0 21 -9.5 29t-32.5 8h-131q-28 0 -44 13.5t-16 37.5q0 25 15.5 38.5t44.5 13.5h194q58 0 85 -24.5t27 -77.5v-39q0 -76 -41 -134.5t-115.5 -91t-170.5 -32.5q-113 0 -196 43z" />
    <glyph glyph-name="Gbreve" unicode="&#x11e;" horiz-adv-x="786" 
d="M217 33q-83 43 -127 124t-44 192t44 192.5t126.5 125t194.5 43.5q93 0 172 -32t117 -85q12 -16 12 -33q0 -25 -27 -45q-12 -9 -30 -9q-15 0 -30 6.5t-25 18.5q-34 39 -79 56.5t-110 17.5q-109 0 -170 -67.5t-61 -188.5q0 -120 61.5 -187t171.5 -67q91 0 142.5 35t51.5 97
v22q0 21 -9.5 29t-32.5 8h-131q-28 0 -44 13.5t-16 37.5q0 25 15.5 38.5t44.5 13.5h194q58 0 85 -24.5t27 -77.5v-39q0 -76 -41 -134.5t-115.5 -91t-170.5 -32.5q-113 0 -196 43zM271 812q-52 46 -52 124q0 28 16 43t45 15t45 -15t16 -43q0 -37 18.5 -57t52.5 -20t52.5 20
t18.5 57q0 28 16 43t45 15t45 -15t16 -43q0 -78 -52 -124t-141 -46t-141 46z" />
    <glyph glyph-name="Gcaron" unicode="&#x1e6;" horiz-adv-x="786" 
d="M217 33q-83 43 -127 124t-44 192t44 192.5t126.5 125t194.5 43.5q93 0 172 -32t117 -85q12 -16 12 -33q0 -25 -27 -45q-12 -9 -30 -9q-15 0 -30 6.5t-25 18.5q-34 39 -79 56.5t-110 17.5q-109 0 -170 -67.5t-61 -188.5q0 -120 61.5 -187t171.5 -67q91 0 142.5 35t51.5 97
v22q0 21 -9.5 29t-32.5 8h-131q-28 0 -44 13.5t-16 37.5q0 25 15.5 38.5t44.5 13.5h194q58 0 85 -24.5t27 -77.5v-39q0 -76 -41 -134.5t-115.5 -91t-170.5 -32.5q-113 0 -196 43zM361 787l-105 126q-15 18 -15 37q0 23 21 39q17 12 33 12q24 0 45 -27l72 -100l72 100
q21 27 45 27q17 0 33 -12q21 -16 21 -39q0 -19 -15 -37l-105 -126q-21 -24 -51 -24t-51 24z" />
    <glyph glyph-name="Gcircumflex" unicode="&#x11c;" horiz-adv-x="786" 
d="M217 33q-83 43 -127 124t-44 192t44 192.5t126.5 125t194.5 43.5q93 0 172 -32t117 -85q12 -16 12 -33q0 -25 -27 -45q-12 -9 -30 -9q-15 0 -30 6.5t-25 18.5q-34 39 -79 56.5t-110 17.5q-109 0 -170 -67.5t-61 -188.5q0 -120 61.5 -187t171.5 -67q91 0 142.5 35t51.5 97
v22q0 21 -9.5 29t-32.5 8h-131q-28 0 -44 13.5t-16 37.5q0 25 15.5 38.5t44.5 13.5h194q58 0 85 -24.5t27 -77.5v-39q0 -76 -41 -134.5t-115.5 -91t-170.5 -32.5q-113 0 -196 43zM241 814q0 19 15 37l105 126q21 24 51 24t51 -24l105 -126q15 -18 15 -37q0 -22 -21 -39
q-17 -12 -33 -12q-24 0 -45 27l-72 100l-72 -100q-21 -27 -45 -27q-16 0 -33 12q-21 17 -21 39z" />
    <glyph glyph-name="uni0122" unicode="&#x122;" horiz-adv-x="786" 
d="M217 33q-83 43 -127 124t-44 192t44 192.5t126.5 125t194.5 43.5q93 0 172 -32t117 -85q12 -16 12 -33q0 -25 -27 -45q-12 -9 -30 -9q-15 0 -30 6.5t-25 18.5q-34 39 -79 56.5t-110 17.5q-109 0 -170 -67.5t-61 -188.5q0 -120 61.5 -187t171.5 -67q91 0 142.5 35t51.5 97
v22q0 21 -9.5 29t-32.5 8h-131q-28 0 -44 13.5t-16 37.5q0 25 15.5 38.5t44.5 13.5h194q58 0 85 -24.5t27 -77.5v-39q0 -76 -41 -134.5t-115.5 -91t-170.5 -32.5q-113 0 -196 43zM333 -296q0 15 21 36q26 26 37 61q-29 0 -46.5 17.5t-17.5 45.5q0 34 24.5 53.5t60.5 19.5
q40 0 63 -24.5t23 -65.5q0 -34 -25 -76t-63 -72q-27 -22 -45 -22q-11 0 -24 11q-8 8 -8 16z" />
    <glyph glyph-name="Gdotaccent" unicode="&#x120;" horiz-adv-x="786" 
d="M217 33q-83 43 -127 124t-44 192t44 192.5t126.5 125t194.5 43.5q93 0 172 -32t117 -85q12 -16 12 -33q0 -25 -27 -45q-12 -9 -30 -9q-15 0 -30 6.5t-25 18.5q-34 39 -79 56.5t-110 17.5q-109 0 -170 -67.5t-61 -188.5q0 -120 61.5 -187t171.5 -67q91 0 142.5 35t51.5 97
v22q0 21 -9.5 29t-32.5 8h-131q-28 0 -44 13.5t-16 37.5q0 25 15.5 38.5t44.5 13.5h194q58 0 85 -24.5t27 -77.5v-39q0 -76 -41 -134.5t-115.5 -91t-170.5 -32.5q-113 0 -196 43zM354 798.5q-23 21.5 -23 52.5q0 32 23 53.5t58 21.5q34 0 57 -21.5t23 -53.5q0 -31 -23 -52.5
t-57 -21.5q-35 0 -58 21.5z" />
    <glyph glyph-name="uni1E20" unicode="&#x1e20;" horiz-adv-x="786" 
d="M217 33q-83 43 -127 124t-44 192t44 192.5t126.5 125t194.5 43.5q93 0 172 -32t117 -85q12 -16 12 -33q0 -25 -27 -45q-12 -9 -30 -9q-15 0 -30 6.5t-25 18.5q-34 39 -79 56.5t-110 17.5q-109 0 -170 -67.5t-61 -188.5q0 -120 61.5 -187t171.5 -67q91 0 142.5 35t51.5 97
v22q0 21 -9.5 29t-32.5 8h-131q-28 0 -44 13.5t-16 37.5q0 25 15.5 38.5t44.5 13.5h194q58 0 85 -24.5t27 -77.5v-39q0 -76 -41 -134.5t-115.5 -91t-170.5 -32.5q-113 0 -196 43zM229 814q0 22 12.5 31.5t39.5 9.5h256q27 0 39.5 -9.5t12.5 -31.5q0 -40 -52 -40h-256
q-52 0 -52 40z" />
    <glyph glyph-name="H" unicode="H" horiz-adv-x="737" 
d="M74 6q-18 16 -18 44v600q0 28 18 44t48 16t48.5 -16.5t18.5 -43.5v-239h359v239q0 27 18.5 43.5t48.5 16.5t48 -16t18 -44v-600q0 -28 -18 -44t-48 -16t-48.5 16.5t-18.5 43.5v258h-359v-258q0 -27 -18.5 -43.5t-48.5 -16.5t-48 16z" />
    <glyph glyph-name="Hbar" unicode="&#x126;" horiz-adv-x="845" 
d="M825 541q0 -25 -16 -37.5t-44 -12.5h-30v-441q0 -28 -18 -44t-48 -16t-48.5 16.5t-18.5 43.5v258h-359v-258q0 -27 -18.5 -43.5t-48.5 -16.5t-48 16t-18 44v441h-30q-28 0 -44 12.5t-16 37.5q0 51 60 51h30v58q0 28 18 44t48 16t48.5 -16.5t18.5 -43.5v-58h359v58
q0 27 18.5 43.5t48.5 16.5t48 -16t18 -44v-58h30q60 0 60 -51zM602 491h-359v-80h359v80z" />
    <glyph glyph-name="uni1E2A" unicode="&#x1e2a;" horiz-adv-x="737" 
d="M74 6q-18 16 -18 44v600q0 28 18 44t48 16t48.5 -16.5t18.5 -43.5v-239h359v239q0 27 18.5 43.5t48.5 16.5t48 -16t18 -44v-600q0 -28 -18 -44t-48 -16t-48.5 16.5t-18.5 43.5v258h-359v-258q0 -27 -18.5 -43.5t-48.5 -16.5t-48 16zM249 -243.5q-48 40.5 -48 111.5
q0 27 15 42.5t41 15.5q28 0 41 -14.5t13 -43.5q0 -30 20 -47t54 -17t54 17t20 47q0 29 13 43.5t41 14.5q26 0 41 -15.5t15 -42.5q0 -71 -48 -111.5t-136 -40.5t-136 40.5z" />
    <glyph glyph-name="Hcircumflex" unicode="&#x124;" horiz-adv-x="737" 
d="M74 6q-18 16 -18 44v600q0 28 18 44t48 16t48.5 -16.5t18.5 -43.5v-239h359v239q0 27 18.5 43.5t48.5 16.5t48 -16t18 -44v-600q0 -28 -18 -44t-48 -16t-48.5 16.5t-18.5 43.5v258h-359v-258q0 -27 -18.5 -43.5t-48.5 -16.5t-48 16zM197 814q0 19 15 37l105 126
q21 24 51 24t51 -24l105 -126q15 -18 15 -37q0 -22 -21 -39q-17 -12 -33 -12q-24 0 -45 27l-72 100l-72 -100q-21 -27 -45 -27q-16 0 -33 12q-21 17 -21 39z" />
    <glyph glyph-name="uni1E24" unicode="&#x1e24;" horiz-adv-x="737" 
d="M74 6q-18 16 -18 44v600q0 28 18 44t48 16t48.5 -16.5t18.5 -43.5v-239h359v239q0 27 18.5 43.5t48.5 16.5t48 -16t18 -44v-600q0 -28 -18 -44t-48 -16t-48.5 16.5t-18.5 43.5v258h-359v-258q0 -27 -18.5 -43.5t-48.5 -16.5t-48 16zM324.5 -192q-21.5 20 -21.5 54
q0 35 21.5 55t59.5 20q37 0 58.5 -20t21.5 -55q0 -34 -21.5 -54t-58.5 -20q-38 0 -59.5 20z" />
    <glyph glyph-name="I" unicode="I" horiz-adv-x="305" 
d="M104 6q-18 16 -18 44v600q0 28 18 44t48 16q29 0 48 -16t19 -44v-600q0 -28 -19 -44t-48 -16q-30 0 -48 16z" />
    <glyph glyph-name="IJ" unicode="&#x132;" horiz-adv-x="843" 
d="M104 6q-18 16 -18 44v600q0 28 18 44t48 16t48.5 -16.5t18.5 -43.5v-600q0 -27 -18.5 -43.5t-48.5 -16.5t-48 16zM391 20.5q-69 30.5 -112 85.5q-13 17 -13 35q0 24 23 44q16 13 37 13q30 0 53 -30q25 -34 67.5 -53t93.5 -19q61 0 90 34t29 104v416q0 28 18 44t48 16
t48.5 -16.5t18.5 -43.5v-412q0 -75 -31 -131t-88 -86.5t-133 -30.5q-80 0 -149 30.5z" />
    <glyph glyph-name="Iacute" unicode="&#xcd;" horiz-adv-x="305" 
d="M104 6q-18 16 -18 44v600q0 28 18 44t48 16q29 0 48 -16t19 -44v-600q0 -28 -19 -44t-48 -16q-30 0 -48 16zM118.5 789.5q-6.5 10.5 -6.5 22.5q0 9 3 16l57 146q15 40 50 40q17 0 33 -8q38 -18 38 -48q0 -13 -9 -27l-81 -139q-7 -11 -18.5 -17.5t-25.5 -6.5t-23 5
q-11 6 -17.5 16.5z" />
    <glyph glyph-name="Ibreve" unicode="&#x12c;" horiz-adv-x="305" 
d="M104 6q-18 16 -18 44v600q0 28 18 44t48 16q29 0 48 -16t19 -44v-600q0 -28 -19 -44t-48 -16q-30 0 -48 16zM7 812q-52 46 -52 124q0 28 16 43t45 15t45 -15t16 -43q0 -37 18.5 -57t52.5 -20t52.5 20t18.5 57q0 28 16 43t45 15t45 -15t16 -43q0 -78 -52 -124t-141 -46
t-141 46z" />
    <glyph glyph-name="uni01CF" unicode="&#x1cf;" horiz-adv-x="305" 
d="M104 6q-18 16 -18 44v600q0 28 18 44t48 16q29 0 48 -16t19 -44v-600q0 -28 -19 -44t-48 -16q-30 0 -48 16zM97 787l-105 126q-15 18 -15 37q0 23 21 39q17 12 33 12q24 0 45 -27l72 -100l72 100q21 27 45 27q17 0 33 -12q21 -16 21 -39q0 -19 -15 -37l-105 -126
q-21 -24 -51 -24t-51 24z" />
    <glyph glyph-name="Icircumflex" unicode="&#xce;" horiz-adv-x="305" 
d="M104 6q-18 16 -18 44v600q0 28 18 44t48 16q29 0 48 -16t19 -44v-600q0 -28 -19 -44t-48 -16q-30 0 -48 16zM-23 814q0 19 15 37l105 126q21 24 51 24t51 -24l105 -126q15 -18 15 -37q0 -22 -21 -39q-17 -12 -33 -12q-24 0 -45 27l-72 100l-72 -100q-21 -27 -45 -27
q-16 0 -33 12q-21 17 -21 39z" />
    <glyph glyph-name="Idieresis" unicode="&#xcf;" horiz-adv-x="305" 
d="M104 6q-18 16 -18 44v600q0 28 18 44t48 16q29 0 48 -16t19 -44v-600q0 -28 -19 -44t-48 -16q-30 0 -48 16zM-20 805.5q-20 19.5 -20 48.5t19.5 49t51.5 20q31 0 50.5 -19.5t19.5 -49.5q0 -28 -19.5 -48t-50.5 -20t-51 19.5zM216 805.5q-20 19.5 -20 48.5t19.5 49
t51.5 20q31 0 50.5 -19.5t19.5 -49.5q0 -28 -19.5 -48t-50.5 -20t-51 19.5z" />
    <glyph glyph-name="Idotaccent" unicode="&#x130;" horiz-adv-x="305" 
d="M104 6q-18 16 -18 44v600q0 28 18 44t48 16q29 0 48 -16t19 -44v-600q0 -28 -19 -44t-48 -16q-30 0 -48 16zM90 798.5q-23 21.5 -23 52.5q0 32 23 53.5t58 21.5q34 0 57 -21.5t23 -53.5q0 -31 -23 -52.5t-57 -21.5q-35 0 -58 21.5z" />
    <glyph glyph-name="uni1ECA" unicode="&#x1eca;" horiz-adv-x="305" 
d="M104 6q-18 16 -18 44v600q0 28 18 44t48 16q29 0 48 -16t19 -44v-600q0 -28 -19 -44t-48 -16q-30 0 -48 16zM88.5 -192q-21.5 20 -21.5 54q0 35 21.5 55t59.5 20q37 0 58.5 -20t21.5 -55q0 -34 -21.5 -54t-58.5 -20q-38 0 -59.5 20z" />
    <glyph glyph-name="Igrave" unicode="&#xcc;" horiz-adv-x="305" 
d="M104 6q-18 16 -18 44v600q0 28 18 44t48 16q29 0 48 -16t19 -44v-600q0 -28 -19 -44t-48 -16q-30 0 -48 16zM163 768q-14 0 -25.5 6.5t-18.5 17.5l-81 139q-9 14 -9 27q0 30 38 48q16 8 33 8q35 0 50 -40l57 -146q3 -7 3 -16q0 -12 -6.5 -22.5t-17.5 -16.5q-9 -5 -23 -5z
" />
    <glyph glyph-name="uni1EC8" unicode="&#x1ec8;" horiz-adv-x="305" 
d="M104 6q-18 16 -18 44v600q0 28 18 44t48 16q29 0 48 -16t19 -44v-600q0 -28 -19 -44t-48 -16q-30 0 -48 16zM107.5 761.5q-15.5 9.5 -15.5 27.5v5q0 17 10.5 31t29.5 30q14 12 20.5 19.5t6.5 15.5q0 9 -6.5 15t-18.5 6q-10 0 -22 -6.5t-22 -17.5q-11 -12 -28 -12
q-15 0 -29 10q-16 12 -16 28q0 10 8 21q19 24 52.5 40t78.5 16q61 0 91.5 -23t30.5 -62q0 -20 -11.5 -35.5t-32.5 -34.5q-16 -14 -23 -22.5t-7 -17.5v-6q0 -18 -15.5 -27.5t-40.5 -9.5t-40.5 9.5z" />
    <glyph glyph-name="Imacron" unicode="&#x12a;" horiz-adv-x="305" 
d="M104 6q-18 16 -18 44v600q0 28 18 44t48 16q29 0 48 -16t19 -44v-600q0 -28 -19 -44t-48 -16q-30 0 -48 16zM-35 814q0 22 12.5 31.5t39.5 9.5h256q27 0 39.5 -9.5t12.5 -31.5q0 -40 -52 -40h-256q-52 0 -52 40z" />
    <glyph glyph-name="Iogonek" unicode="&#x12e;" horiz-adv-x="305" 
d="M262 -140q0 -14 -14 -28q-40 -40 -104 -40q-57 0 -93.5 24t-36.5 74q0 37 18 69t58 67q-4 14 -4 24v600q0 28 18 44t48 16q29 0 48 -16t19 -44v-600q0 -25 -16 -41q-5 -6 -12 -12l-20 -17q-30 -25 -41 -39.5t-11 -36.5q0 -16 11.5 -24t25.5 -8q26 0 43 15q12 11 26 11
q13 0 24 -11q13 -13 13 -27z" />
    <glyph glyph-name="Itilde" unicode="&#x128;" horiz-adv-x="305" 
d="M104 6q-18 16 -18 44v600q0 28 18 44t48 16q29 0 48 -16t19 -44v-600q0 -28 -19 -44t-48 -16q-30 0 -48 16zM-40.5 809q-7.5 9 -7.5 22t5 23q18 41 45 62.5t69 21.5q27 0 49 -9.5t50 -26.5q4 -2 14.5 -8.5t18.5 -9.5t15 -3q13 0 22 7t17 25q16 32 41 32q20 0 32.5 -10.5
t12.5 -27.5q0 -13 -5 -23q-18 -41 -45 -62.5t-69 -21.5q-25 0 -45 8.5t-45 24.5q-17 12 -30 18t-27 6q-13 0 -22 -7t-17 -25q-16 -32 -41 -32q-8 0 -17 3q-13 4 -20.5 13z" />
    <glyph glyph-name="J" unicode="J" horiz-adv-x="603" 
d="M151 20.5q-69 30.5 -112 85.5q-13 17 -13 35q0 24 23 44q16 13 37 13q30 0 53 -30q25 -34 67.5 -53t93.5 -19q61 0 90 34t29 104v416q0 28 18 44t48 16t48.5 -16.5t18.5 -43.5v-412q0 -75 -31 -131t-88 -86.5t-133 -30.5q-80 0 -149 30.5z" />
    <glyph glyph-name="Jcircumflex" unicode="&#x134;" horiz-adv-x="603" 
d="M151 20.5q-69 30.5 -112 85.5q-13 17 -13 35q0 24 23 44q16 13 37 13q30 0 53 -30q25 -34 67.5 -53t93.5 -19q61 0 90 34t29 104v416q0 28 18 44t48 16t48.5 -16.5t18.5 -43.5v-412q0 -75 -31 -131t-88 -86.5t-133 -30.5q-80 0 -149 30.5zM314 814q0 19 15 37l105 126
q21 24 51 24t51 -24l105 -126q15 -18 15 -37q0 -22 -21 -39q-17 -12 -33 -12q-24 0 -45 27l-72 100l-72 -100q-21 -27 -45 -27q-16 0 -33 12q-21 17 -21 39z" />
    <glyph glyph-name="K" unicode="K" horiz-adv-x="695" 
d="M524 34q-19 107 -74.5 178t-161.5 126l-99 -82v-206q0 -27 -18.5 -43.5t-48.5 -16.5t-48 16t-18 44v600q0 28 18 44t48 16t48.5 -16.5t18.5 -43.5v-249l334 291q18 17 42 17t42 -19q19 -21 19 -39q0 -21 -24 -42l-230 -200q120 -52 191.5 -146.5t85.5 -208.5
q3 -26 -13 -45t-41 -19q-63 0 -71 44z" />
    <glyph glyph-name="uni0136" unicode="&#x136;" horiz-adv-x="695" 
d="M524 34q-19 107 -74.5 178t-161.5 126l-99 -82v-206q0 -27 -18.5 -43.5t-48.5 -16.5t-48 16t-18 44v600q0 28 18 44t48 16t48.5 -16.5t18.5 -43.5v-249l334 291q18 17 42 17t42 -19q19 -21 19 -39q0 -21 -24 -42l-230 -200q120 -52 191.5 -146.5t85.5 -208.5
q3 -26 -13 -45t-41 -19q-63 0 -71 44zM268 -296q0 15 21 36q26 26 37 61q-29 0 -46.5 17.5t-17.5 45.5q0 34 24.5 53.5t60.5 19.5q40 0 63 -24.5t23 -65.5q0 -34 -25 -76t-63 -72q-27 -22 -45 -22q-11 0 -24 11q-8 8 -8 16z" />
    <glyph glyph-name="L" unicode="L" horiz-adv-x="640" 
d="M98 40q-42 40 -42 112v498q0 28 18 44t48 16t48.5 -16.5t18.5 -43.5v-498q0 -23 11.5 -36t31.5 -13h320q30 0 46 -13.5t16 -38.5q0 -24 -16.5 -37.5t-45.5 -13.5h-336q-76 0 -118 40z" />
    <glyph glyph-name="Lacute" unicode="&#x139;" horiz-adv-x="628" 
d="M98 40q-42 40 -42 112v498q0 28 18 44t48 16t48.5 -16.5t18.5 -43.5v-498q0 -23 11.5 -36t31.5 -13h320q30 0 46 -13.5t16 -38.5q0 -24 -16.5 -37.5t-45.5 -13.5h-336q-76 0 -118 40zM97.5 789.5q-6.5 10.5 -6.5 22.5q0 9 3 16l57 146q15 40 50 40q17 0 33 -8
q38 -18 38 -48q0 -13 -9 -27l-81 -139q-7 -11 -18.5 -17.5t-25.5 -6.5t-23 5q-11 6 -17.5 16.5z" />
    <glyph glyph-name="Lcaron" unicode="&#x13d;" horiz-adv-x="628" 
d="M98 40q-42 40 -42 112v498q0 28 18 44t48 16t48.5 -16.5t18.5 -43.5v-498q0 -23 11.5 -36t31.5 -13h320q30 0 46 -13.5t16 -38.5q0 -24 -16.5 -37.5t-45.5 -13.5h-336q-76 0 -118 40zM324 470q0 18 22 37q16 13 27 28.5t14 29.5q-27 -2 -44.5 16t-17.5 47q0 35 22.5 53.5
t61.5 18.5t62 -25.5t23 -63.5q0 -36 -23.5 -74.5t-63.5 -71.5q-26 -21 -50 -21q-18 0 -28 12q-5 5 -5 14z" />
    <glyph glyph-name="uni013B" unicode="&#x13b;" horiz-adv-x="640" 
d="M98 40q-42 40 -42 112v498q0 28 18 44t48 16t48.5 -16.5t18.5 -43.5v-498q0 -23 11.5 -36t31.5 -13h320q30 0 46 -13.5t16 -38.5q0 -24 -16.5 -37.5t-45.5 -13.5h-336q-76 0 -118 40zM231 -296q0 15 21 36q26 26 37 61q-29 0 -46.5 17.5t-17.5 45.5q0 34 24.5 53.5
t60.5 19.5q40 0 63 -24.5t23 -65.5q0 -34 -25 -76t-63 -72q-27 -22 -45 -22q-11 0 -24 11q-8 8 -8 16z" />
    <glyph glyph-name="Ldot" unicode="&#x13f;" horiz-adv-x="640" 
d="M98 40q-42 40 -42 112v498q0 28 18 44t48 16t48.5 -16.5t18.5 -43.5v-498q0 -23 11.5 -36t31.5 -13h320q30 0 46 -13.5t16 -38.5q0 -24 -16.5 -37.5t-45.5 -13.5h-336q-76 0 -118 40zM313 287q-23 22 -23 53q0 33 23 55.5t58 22.5t57.5 -23t22.5 -55q0 -31 -22.5 -53
t-57.5 -22t-58 22z" />
    <glyph glyph-name="uni1E36" unicode="&#x1e36;" horiz-adv-x="640" 
d="M98 40q-42 40 -42 112v498q0 28 18 44t48 16t48.5 -16.5t18.5 -43.5v-498q0 -23 11.5 -36t31.5 -13h320q30 0 46 -13.5t16 -38.5q0 -24 -16.5 -37.5t-45.5 -13.5h-336q-76 0 -118 40zM250.5 -192q-21.5 20 -21.5 54q0 35 21.5 55t59.5 20q37 0 58.5 -20t21.5 -55
q0 -34 -21.5 -54t-58.5 -20q-38 0 -59.5 20z" />
    <glyph glyph-name="uni1E38" unicode="&#x1e38;" horiz-adv-x="628" 
d="M98 40q-42 40 -42 112v498q0 28 18 44t48 16t48.5 -16.5t18.5 -43.5v-498q0 -23 11.5 -36t31.5 -13h320q30 0 46 -13.5t16 -38.5q0 -24 -16.5 -37.5t-45.5 -13.5h-336q-76 0 -118 40zM250.5 -192q-21.5 20 -21.5 54q0 35 21.5 55t59.5 20q37 0 58.5 -20t21.5 -55
q0 -34 -21.5 -54t-58.5 -20q-38 0 -59.5 20zM-51 814q0 22 12.5 31.5t39.5 9.5h256q27 0 39.5 -9.5t12.5 -31.5q0 -40 -52 -40h-256q-52 0 -52 40z" />
    <glyph glyph-name="uni1E3A" unicode="&#x1e3a;" horiz-adv-x="640" 
d="M98 40q-42 40 -42 112v498q0 28 18 44t48 16t48.5 -16.5t18.5 -43.5v-498q0 -23 11.5 -36t31.5 -13h320q30 0 46 -13.5t16 -38.5q0 -24 -16.5 -37.5t-45.5 -13.5h-336q-76 0 -118 40zM130 -124q0 22 12.5 31.5t39.5 9.5h256q27 0 39.5 -9.5t12.5 -31.5q0 -40 -52 -40
h-256q-52 0 -52 40z" />
    <glyph glyph-name="Lslash" unicode="&#x141;" horiz-adv-x="722" 
d="M680 89.5q16 -13.5 16 -38.5q0 -24 -16.5 -37.5t-45.5 -13.5h-336q-76 0 -118 40t-42 112v130l-28 -20q-16 -11 -33 -11q-26 0 -44 22q-13 16 -13 34q0 24 23 41l95 67v235q0 28 18 44t48 16t48.5 -16.5t18.5 -43.5v-141l32 23q16 11 33 11q26 0 44 -22q13 -16 13 -34
q0 -24 -23 -41l-99 -70v-224q0 -23 11.5 -36t31.5 -13h320q30 0 46 -13.5z" />
    <glyph glyph-name="M" unicode="M" horiz-adv-x="991" 
d="M74 6q-18 16 -18 44v412q0 116 66 182t182 66q56 0 105.5 -27.5t85.5 -78.5q35 52 84.5 79t107.5 27q116 0 182 -66t66 -182v-412q0 -27 -18.5 -43.5t-48.5 -16.5t-48 16t-18 44v412q0 76 -28 109.5t-92 33.5q-58 0 -89.5 -37t-31.5 -106v-412q0 -28 -18 -44t-48 -16
t-47.5 16t-17.5 44v412q0 67 -32 105t-89 38q-64 0 -92 -33.5t-28 -109.5v-412q0 -27 -18.5 -43.5t-48.5 -16.5t-48 16z" />
    <glyph glyph-name="uni1E42" unicode="&#x1e42;" horiz-adv-x="991" 
d="M74 6q-18 16 -18 44v412q0 116 66 182t182 66q56 0 105.5 -27.5t85.5 -78.5q35 52 84.5 79t107.5 27q116 0 182 -66t66 -182v-412q0 -27 -18.5 -43.5t-48.5 -16.5t-48 16t-18 44v412q0 76 -28 109.5t-92 33.5q-58 0 -89.5 -37t-31.5 -106v-412q0 -28 -18 -44t-48 -16
t-47.5 16t-17.5 44v412q0 67 -32 105t-89 38q-64 0 -92 -33.5t-28 -109.5v-412q0 -27 -18.5 -43.5t-48.5 -16.5t-48 16zM442.5 -192q-21.5 20 -21.5 54q0 35 21.5 55t59.5 20q37 0 58.5 -20t21.5 -55q0 -34 -21.5 -54t-58.5 -20q-38 0 -59.5 20z" />
    <glyph glyph-name="N" unicode="N" horiz-adv-x="728" 
d="M69 6q-18 16 -18 44v377q0 133 83 208t230 75t230 -75t83 -208v-377q0 -28 -18 -44t-48 -16t-48.5 16.5t-18.5 43.5v380q0 85 -46 130t-134 45t-134 -45t-46 -130v-380q0 -27 -18.5 -43.5t-48.5 -16.5t-48 16z" />
    <glyph glyph-name="Nacute" unicode="&#x143;" horiz-adv-x="728" 
d="M69 6q-18 16 -18 44v377q0 133 83 208t230 75t230 -75t83 -208v-377q0 -28 -18 -44t-48 -16t-48.5 16.5t-18.5 43.5v380q0 85 -46 130t-134 45t-134 -45t-46 -130v-380q0 -27 -18.5 -43.5t-48.5 -16.5t-48 16zM338.5 789.5q-6.5 10.5 -6.5 22.5q0 9 3 16l57 146
q15 40 50 40q17 0 33 -8q38 -18 38 -48q0 -13 -9 -27l-81 -139q-7 -11 -18.5 -17.5t-25.5 -6.5t-23 5q-11 6 -17.5 16.5z" />
    <glyph glyph-name="Ncaron" unicode="&#x147;" horiz-adv-x="728" 
d="M69 6q-18 16 -18 44v377q0 133 83 208t230 75t230 -75t83 -208v-377q0 -28 -18 -44t-48 -16t-48.5 16.5t-18.5 43.5v380q0 85 -46 130t-134 45t-134 -45t-46 -130v-380q0 -27 -18.5 -43.5t-48.5 -16.5t-48 16zM317 787l-105 126q-15 18 -15 37q0 23 21 39q17 12 33 12
q24 0 45 -27l72 -100l72 100q21 27 45 27q17 0 33 -12q21 -16 21 -39q0 -19 -15 -37l-105 -126q-21 -24 -51 -24t-51 24z" />
    <glyph glyph-name="uni0145" unicode="&#x145;" horiz-adv-x="728" 
d="M69 6q-18 16 -18 44v377q0 133 83 208t230 75t230 -75t83 -208v-377q0 -28 -18 -44t-48 -16t-48.5 16.5t-18.5 43.5v380q0 85 -46 130t-134 45t-134 -45t-46 -130v-380q0 -27 -18.5 -43.5t-48.5 -16.5t-48 16zM289 -296q0 15 21 36q26 26 37 61q-29 0 -46.5 17.5
t-17.5 45.5q0 34 24.5 53.5t60.5 19.5q40 0 63 -24.5t23 -65.5q0 -34 -25 -76t-63 -72q-27 -22 -45 -22q-11 0 -24 11q-8 8 -8 16z" />
    <glyph glyph-name="uni1E44" unicode="&#x1e44;" horiz-adv-x="728" 
d="M69 6q-18 16 -18 44v377q0 133 83 208t230 75t230 -75t83 -208v-377q0 -28 -18 -44t-48 -16t-48.5 16.5t-18.5 43.5v380q0 85 -46 130t-134 45t-134 -45t-46 -130v-380q0 -27 -18.5 -43.5t-48.5 -16.5t-48 16zM310 798.5q-23 21.5 -23 52.5q0 32 23 53.5t58 21.5
q34 0 57 -21.5t23 -53.5q0 -31 -23 -52.5t-57 -21.5q-35 0 -58 21.5z" />
    <glyph glyph-name="uni1E46" unicode="&#x1e46;" horiz-adv-x="728" 
d="M69 6q-18 16 -18 44v377q0 133 83 208t230 75t230 -75t83 -208v-377q0 -28 -18 -44t-48 -16t-48.5 16.5t-18.5 43.5v380q0 85 -46 130t-134 45t-134 -45t-46 -130v-380q0 -27 -18.5 -43.5t-48.5 -16.5t-48 16zM308.5 -192q-21.5 20 -21.5 54q0 35 21.5 55t59.5 20
q37 0 58.5 -20t21.5 -55q0 -34 -21.5 -54t-58.5 -20q-38 0 -59.5 20z" />
    <glyph glyph-name="Eng" unicode="&#x14a;" horiz-adv-x="716" 
d="M168 -160q-13 17 -13 35q0 24 23 44q16 13 37 13q31 0 53 -30q23 -32 60 -47t91 -15q61 0 90 34t29 104v452q0 85 -46 130t-134 45t-134 -45t-46 -130v-380q0 -27 -18.5 -43.5t-48.5 -16.5t-48 16t-18 44v377q0 133 83 208t230 75t230 -75t83 -208v-445q0 -75 -31 -131
t-88 -86.5t-133 -30.5q-168 0 -251 106z" />
    <glyph glyph-name="uni1E48" unicode="&#x1e48;" horiz-adv-x="728" 
d="M69 6q-18 16 -18 44v377q0 133 83 208t230 75t230 -75t83 -208v-377q0 -28 -18 -44t-48 -16t-48.5 16.5t-18.5 43.5v380q0 85 -46 130t-134 45t-134 -45t-46 -130v-380q0 -27 -18.5 -43.5t-48.5 -16.5t-48 16zM188 -124q0 22 12.5 31.5t39.5 9.5h256q27 0 39.5 -9.5
t12.5 -31.5q0 -40 -52 -40h-256q-52 0 -52 40z" />
    <glyph glyph-name="Ntilde" unicode="&#xd1;" horiz-adv-x="728" 
d="M69 6q-18 16 -18 44v377q0 133 83 208t230 75t230 -75t83 -208v-377q0 -28 -18 -44t-48 -16t-48.5 16.5t-18.5 43.5v380q0 85 -46 130t-134 45t-134 -45t-46 -130v-380q0 -27 -18.5 -43.5t-48.5 -16.5t-48 16zM179.5 809q-7.5 9 -7.5 22t5 23q18 41 45 62.5t69 21.5
q27 0 49 -9.5t50 -26.5q4 -2 14.5 -8.5t18.5 -9.5t15 -3q13 0 22 7t17 25q16 32 41 32q20 0 32.5 -10.5t12.5 -27.5q0 -13 -5 -23q-18 -41 -45 -62.5t-69 -21.5q-25 0 -45 8.5t-45 24.5q-17 12 -30 18t-27 6q-13 0 -22 -7t-17 -25q-16 -32 -41 -32q-8 0 -17 3
q-13 4 -20.5 13z" />
    <glyph glyph-name="O" unicode="O" horiz-adv-x="840" 
d="M218.5 35.5q-84.5 45.5 -128.5 127t-44 187.5t44 187.5t128.5 127t201.5 45.5t201.5 -45.5t128.5 -127t44 -187.5t-44 -187.5t-128.5 -127t-201.5 -45.5t-201.5 45.5zM597 163.5q63 68.5 63 186.5q0 119 -65.5 187t-184.5 68q-109 0 -169.5 -69.5t-60.5 -185.5
q0 -118 63 -186.5t177 -68.5t177 68.5z" />
    <glyph glyph-name="Oacute" unicode="&#xd3;" horiz-adv-x="840" 
d="M218.5 35.5q-84.5 45.5 -128.5 127t-44 187.5t44 187.5t128.5 127t201.5 45.5t201.5 -45.5t128.5 -127t44 -187.5t-44 -187.5t-128.5 -127t-201.5 -45.5t-201.5 45.5zM597 163.5q63 68.5 63 186.5q0 119 -65.5 187t-184.5 68q-109 0 -169.5 -69.5t-60.5 -185.5
q0 -118 63 -186.5t177 -68.5t177 68.5zM390.5 789.5q-6.5 10.5 -6.5 22.5q0 9 3 16l57 146q15 40 50 40q17 0 33 -8q38 -18 38 -48q0 -13 -9 -27l-81 -139q-7 -11 -18.5 -17.5t-25.5 -6.5t-23 5q-11 6 -17.5 16.5z" />
    <glyph glyph-name="Obreve" unicode="&#x14e;" horiz-adv-x="840" 
d="M218.5 35.5q-84.5 45.5 -128.5 127t-44 187.5t44 187.5t128.5 127t201.5 45.5t201.5 -45.5t128.5 -127t44 -187.5t-44 -187.5t-128.5 -127t-201.5 -45.5t-201.5 45.5zM597 163.5q63 68.5 63 186.5q0 119 -65.5 187t-184.5 68q-109 0 -169.5 -69.5t-60.5 -185.5
q0 -118 63 -186.5t177 -68.5t177 68.5zM279 812q-52 46 -52 124q0 28 16 43t45 15t45 -15t16 -43q0 -37 18.5 -57t52.5 -20t52.5 20t18.5 57q0 28 16 43t45 15t45 -15t16 -43q0 -78 -52 -124t-141 -46t-141 46z" />
    <glyph glyph-name="uni01D1" unicode="&#x1d1;" horiz-adv-x="840" 
d="M218.5 35.5q-84.5 45.5 -128.5 127t-44 187.5t44 187.5t128.5 127t201.5 45.5t201.5 -45.5t128.5 -127t44 -187.5t-44 -187.5t-128.5 -127t-201.5 -45.5t-201.5 45.5zM597 163.5q63 68.5 63 186.5q0 119 -65.5 187t-184.5 68q-109 0 -169.5 -69.5t-60.5 -185.5
q0 -118 63 -186.5t177 -68.5t177 68.5zM369 787l-105 126q-15 18 -15 37q0 23 21 39q17 12 33 12q24 0 45 -27l72 -100l72 100q21 27 45 27q17 0 33 -12q21 -16 21 -39q0 -19 -15 -37l-105 -126q-21 -24 -51 -24t-51 24z" />
    <glyph glyph-name="Ocircumflex" unicode="&#xd4;" horiz-adv-x="840" 
d="M218.5 35.5q-84.5 45.5 -128.5 127t-44 187.5t44 187.5t128.5 127t201.5 45.5t201.5 -45.5t128.5 -127t44 -187.5t-44 -187.5t-128.5 -127t-201.5 -45.5t-201.5 45.5zM597 163.5q63 68.5 63 186.5q0 119 -65.5 187t-184.5 68q-109 0 -169.5 -69.5t-60.5 -185.5
q0 -118 63 -186.5t177 -68.5t177 68.5zM249 814q0 19 15 37l105 126q21 24 51 24t51 -24l105 -126q15 -18 15 -37q0 -22 -21 -39q-17 -12 -33 -12q-24 0 -45 27l-72 100l-72 -100q-21 -27 -45 -27q-16 0 -33 12q-21 17 -21 39z" />
    <glyph glyph-name="uni1ED0" unicode="&#x1ed0;" horiz-adv-x="840" 
d="M218.5 35.5q-84.5 45.5 -128.5 127t-44 187.5t44 187.5t128.5 127t201.5 45.5t201.5 -45.5t128.5 -127t44 -187.5t-44 -187.5t-128.5 -127t-201.5 -45.5t-201.5 45.5zM597 163.5q63 68.5 63 186.5q0 119 -65.5 187t-184.5 68q-109 0 -169.5 -69.5t-60.5 -185.5
q0 -118 63 -186.5t177 -68.5t177 68.5zM509 979q0 13 6 23l64 108q8 14 20.5 21t25.5 7q18 0 34 -11q11 -8 17 -19t6 -23q0 -16 -12 -31l-84 -97q-16 -18 -36 -18q-14 0 -26 9q-15 12 -15 31zM248 814q0 18 16 36l105 116q21 24 51 24t51 -24l105 -116q16 -18 16 -36
q0 -23 -22 -40q-15 -12 -32 -12q-25 0 -46 27l-72 90l-72 -90q-21 -27 -46 -27q-17 0 -32 12q-22 17 -22 40z" />
    <glyph glyph-name="uni1ED8" unicode="&#x1ed8;" horiz-adv-x="840" 
d="M218.5 35.5q-84.5 45.5 -128.5 127t-44 187.5t44 187.5t128.5 127t201.5 45.5t201.5 -45.5t128.5 -127t44 -187.5t-44 -187.5t-128.5 -127t-201.5 -45.5t-201.5 45.5zM597 163.5q63 68.5 63 186.5q0 119 -65.5 187t-184.5 68q-109 0 -169.5 -69.5t-60.5 -185.5
q0 -118 63 -186.5t177 -68.5t177 68.5zM360.5 -192q-21.5 20 -21.5 54q0 35 21.5 55t59.5 20q37 0 58.5 -20t21.5 -55q0 -34 -21.5 -54t-58.5 -20q-38 0 -59.5 20zM249 814q0 19 15 37l105 126q21 24 51 24t51 -24l105 -126q15 -18 15 -37q0 -22 -21 -39q-17 -12 -33 -12
q-24 0 -45 27l-72 100l-72 -100q-21 -27 -45 -27q-16 0 -33 12q-21 17 -21 39z" />
    <glyph glyph-name="uni1ED2" unicode="&#x1ed2;" horiz-adv-x="840" 
d="M218.5 35.5q-84.5 45.5 -128.5 127t-44 187.5t44 187.5t128.5 127t201.5 45.5t201.5 -45.5t128.5 -127t44 -187.5t-44 -187.5t-128.5 -127t-201.5 -45.5t-201.5 45.5zM597 163.5q63 68.5 63 186.5q0 119 -65.5 187t-184.5 68q-109 0 -169.5 -69.5t-60.5 -185.5
q0 -118 63 -186.5t177 -68.5t177 68.5zM571 939q-20 0 -36 18l-84 97q-12 15 -12 31q0 12 6 23t17 19q16 11 34 11q13 0 25.5 -7t20.5 -21l64 -108q6 -10 6 -23q0 -19 -15 -31q-12 -9 -26 -9zM248 814q0 18 16 36l105 116q21 24 51 24t51 -24l105 -116q16 -18 16 -36
q0 -23 -22 -40q-15 -12 -32 -12q-25 0 -46 27l-72 90l-72 -90q-21 -27 -46 -27q-17 0 -32 12q-22 17 -22 40z" />
    <glyph glyph-name="uni1ED4" unicode="&#x1ed4;" horiz-adv-x="840" 
d="M218.5 35.5q-84.5 45.5 -128.5 127t-44 187.5t44 187.5t128.5 127t201.5 45.5t201.5 -45.5t128.5 -127t44 -187.5t-44 -187.5t-128.5 -127t-201.5 -45.5t-201.5 45.5zM597 163.5q63 68.5 63 186.5q0 119 -65.5 187t-184.5 68q-109 0 -169.5 -69.5t-60.5 -185.5
q0 -118 63 -186.5t177 -68.5t177 68.5zM524.5 936.5q-13.5 8.5 -13.5 23.5v4q0 15 8.5 26t25.5 27q12 10 18 17.5t6 14.5q0 8 -5.5 13t-15.5 5q-17 0 -38 -21q-12 -12 -27 -12q-12 0 -24 9q-14 11 -14 25q0 9 7 19q15 21 45.5 35t69.5 14q53 0 79.5 -20t26.5 -53
q0 -18 -10 -31.5t-29 -30.5q-13 -11 -19.5 -19t-6.5 -17v-5q0 -15 -13 -23.5t-35 -8.5t-35.5 8.5zM248 814q0 18 16 36l105 116q21 24 51 24t51 -24l105 -116q16 -18 16 -36q0 -23 -22 -40q-15 -12 -32 -12q-25 0 -46 27l-72 90l-72 -90q-21 -27 -46 -27q-17 0 -32 12
q-22 17 -22 40z" />
    <glyph glyph-name="uni1ED6" unicode="&#x1ed6;" horiz-adv-x="840" 
d="M218.5 35.5q-84.5 45.5 -128.5 127t-44 187.5t44 187.5t128.5 127t201.5 45.5t201.5 -45.5t128.5 -127t44 -187.5t-44 -187.5t-128.5 -127t-201.5 -45.5t-201.5 45.5zM597 163.5q63 68.5 63 186.5q0 119 -65.5 187t-184.5 68q-109 0 -169.5 -69.5t-60.5 -185.5
q0 -118 63 -186.5t177 -68.5t177 68.5zM251.5 1007.5q-11.5 9.5 -11.5 25.5q0 9 5 22q16 38 42 58.5t66 20.5q26 0 46 -8.5t48 -25.5q18 -11 27.5 -15.5t18.5 -4.5q13 0 21 7t16 23q14 30 39 30q19 0 30.5 -10t11.5 -26q0 -9 -5 -21q-17 -39 -42.5 -59.5t-65.5 -20.5
q-24 0 -42.5 8t-41.5 23q-19 12 -30.5 17.5t-24.5 5.5t-21 -6.5t-16 -23.5q-15 -29 -39 -29q-20 0 -31.5 9.5zM248 814q0 18 16 36l105 116q21 24 51 24t51 -24l105 -116q16 -18 16 -36q0 -23 -22 -40q-15 -12 -32 -12q-25 0 -46 27l-72 90l-72 -90q-21 -27 -46 -27
q-17 0 -32 12q-22 17 -22 40z" />
    <glyph glyph-name="Odieresis" unicode="&#xd6;" horiz-adv-x="840" 
d="M218.5 35.5q-84.5 45.5 -128.5 127t-44 187.5t44 187.5t128.5 127t201.5 45.5t201.5 -45.5t128.5 -127t44 -187.5t-44 -187.5t-128.5 -127t-201.5 -45.5t-201.5 45.5zM597 163.5q63 68.5 63 186.5q0 119 -65.5 187t-184.5 68q-109 0 -169.5 -69.5t-60.5 -185.5
q0 -118 63 -186.5t177 -68.5t177 68.5zM252 805.5q-20 19.5 -20 48.5t19.5 49t51.5 20q31 0 50.5 -19.5t19.5 -49.5q0 -28 -19.5 -48t-50.5 -20t-51 19.5zM488 805.5q-20 19.5 -20 48.5t19.5 49t51.5 20q31 0 50.5 -19.5t19.5 -49.5q0 -28 -19.5 -48t-50.5 -20t-51 19.5z
" />
    <glyph glyph-name="uni1ECC" unicode="&#x1ecc;" horiz-adv-x="840" 
d="M218.5 35.5q-84.5 45.5 -128.5 127t-44 187.5t44 187.5t128.5 127t201.5 45.5t201.5 -45.5t128.5 -127t44 -187.5t-44 -187.5t-128.5 -127t-201.5 -45.5t-201.5 45.5zM597 163.5q63 68.5 63 186.5q0 119 -65.5 187t-184.5 68q-109 0 -169.5 -69.5t-60.5 -185.5
q0 -118 63 -186.5t177 -68.5t177 68.5zM360.5 -192q-21.5 20 -21.5 54q0 35 21.5 55t59.5 20q37 0 58.5 -20t21.5 -55q0 -34 -21.5 -54t-58.5 -20q-38 0 -59.5 20z" />
    <glyph glyph-name="Ograve" unicode="&#xd2;" horiz-adv-x="840" 
d="M218.5 35.5q-84.5 45.5 -128.5 127t-44 187.5t44 187.5t128.5 127t201.5 45.5t201.5 -45.5t128.5 -127t44 -187.5t-44 -187.5t-128.5 -127t-201.5 -45.5t-201.5 45.5zM597 163.5q63 68.5 63 186.5q0 119 -65.5 187t-184.5 68q-109 0 -169.5 -69.5t-60.5 -185.5
q0 -118 63 -186.5t177 -68.5t177 68.5zM435 768q-14 0 -25.5 6.5t-18.5 17.5l-81 139q-9 14 -9 27q0 30 38 48q16 8 33 8q35 0 50 -40l57 -146q3 -7 3 -16q0 -12 -6.5 -22.5t-17.5 -16.5q-9 -5 -23 -5z" />
    <glyph glyph-name="uni1ECE" unicode="&#x1ece;" horiz-adv-x="840" 
d="M218.5 35.5q-84.5 45.5 -128.5 127t-44 187.5t44 187.5t128.5 127t201.5 45.5t201.5 -45.5t128.5 -127t44 -187.5t-44 -187.5t-128.5 -127t-201.5 -45.5t-201.5 45.5zM597 163.5q63 68.5 63 186.5q0 119 -65.5 187t-184.5 68q-109 0 -169.5 -69.5t-60.5 -185.5
q0 -118 63 -186.5t177 -68.5t177 68.5zM379.5 761.5q-15.5 9.5 -15.5 27.5v5q0 17 10.5 31t29.5 30q14 12 20.5 19.5t6.5 15.5q0 9 -6.5 15t-18.5 6q-10 0 -22 -6.5t-22 -17.5q-11 -12 -28 -12q-15 0 -29 10q-16 12 -16 28q0 10 8 21q19 24 52.5 40t78.5 16q61 0 91.5 -23
t30.5 -62q0 -20 -11.5 -35.5t-32.5 -34.5q-16 -14 -23 -22.5t-7 -17.5v-6q0 -18 -15.5 -27.5t-40.5 -9.5t-40.5 9.5z" />
    <glyph glyph-name="Ohorn" unicode="&#x1a0;" horiz-adv-x="840" 
d="M833.5 615.5q-37.5 -41.5 -99.5 -52.5q60 -89 60 -213q0 -106 -44 -187.5t-128.5 -127t-201.5 -45.5t-201.5 45.5t-128.5 127t-44 187.5t44 187.5t128.5 127t201.5 45.5q145 0 241 -71l46 6q61 8 61 74q0 52 49 52q26 0 40 -13.5t14 -38.5q0 -62 -37.5 -103.5zM597 163.5
q63 68.5 63 186.5q0 119 -65.5 187t-184.5 68q-109 0 -169.5 -69.5t-60.5 -185.5q0 -118 63 -186.5t177 -68.5t177 68.5z" />
    <glyph glyph-name="uni1EDA" unicode="&#x1eda;" horiz-adv-x="840" 
d="M833.5 615.5q-37.5 -41.5 -99.5 -52.5q60 -89 60 -213q0 -106 -44 -187.5t-128.5 -127t-201.5 -45.5t-201.5 45.5t-128.5 127t-44 187.5t44 187.5t128.5 127t201.5 45.5q145 0 241 -71l46 6q61 8 61 74q0 52 49 52q26 0 40 -13.5t14 -38.5q0 -62 -37.5 -103.5zM597 163.5
q63 68.5 63 186.5q0 119 -65.5 187t-184.5 68q-109 0 -169.5 -69.5t-60.5 -185.5q0 -118 63 -186.5t177 -68.5t177 68.5zM390.5 789.5q-6.5 10.5 -6.5 22.5q0 9 3 16l57 146q15 40 50 40q17 0 33 -8q38 -18 38 -48q0 -13 -9 -27l-81 -139q-7 -11 -18.5 -17.5t-25.5 -6.5
t-23 5q-11 6 -17.5 16.5z" />
    <glyph glyph-name="uni1EE2" unicode="&#x1ee2;" horiz-adv-x="840" 
d="M833.5 615.5q-37.5 -41.5 -99.5 -52.5q60 -89 60 -213q0 -106 -44 -187.5t-128.5 -127t-201.5 -45.5t-201.5 45.5t-128.5 127t-44 187.5t44 187.5t128.5 127t201.5 45.5q145 0 241 -71l46 6q61 8 61 74q0 52 49 52q26 0 40 -13.5t14 -38.5q0 -62 -37.5 -103.5zM597 163.5
q63 68.5 63 186.5q0 119 -65.5 187t-184.5 68q-109 0 -169.5 -69.5t-60.5 -185.5q0 -118 63 -186.5t177 -68.5t177 68.5zM360.5 -192q-21.5 20 -21.5 54q0 35 21.5 55t59.5 20q37 0 58.5 -20t21.5 -55q0 -34 -21.5 -54t-58.5 -20q-38 0 -59.5 20z" />
    <glyph glyph-name="uni1EDC" unicode="&#x1edc;" horiz-adv-x="840" 
d="M833.5 615.5q-37.5 -41.5 -99.5 -52.5q60 -89 60 -213q0 -106 -44 -187.5t-128.5 -127t-201.5 -45.5t-201.5 45.5t-128.5 127t-44 187.5t44 187.5t128.5 127t201.5 45.5q145 0 241 -71l46 6q61 8 61 74q0 52 49 52q26 0 40 -13.5t14 -38.5q0 -62 -37.5 -103.5zM597 163.5
q63 68.5 63 186.5q0 119 -65.5 187t-184.5 68q-109 0 -169.5 -69.5t-60.5 -185.5q0 -118 63 -186.5t177 -68.5t177 68.5zM418 768q-14 0 -25.5 6.5t-18.5 17.5l-81 139q-9 14 -9 27q0 30 38 48q16 8 33 8q35 0 50 -40l57 -146q3 -7 3 -16q0 -12 -6.5 -22.5t-17.5 -16.5
q-9 -5 -23 -5z" />
    <glyph glyph-name="uni1EDE" unicode="&#x1ede;" horiz-adv-x="840" 
d="M833.5 615.5q-37.5 -41.5 -99.5 -52.5q60 -89 60 -213q0 -106 -44 -187.5t-128.5 -127t-201.5 -45.5t-201.5 45.5t-128.5 127t-44 187.5t44 187.5t128.5 127t201.5 45.5q145 0 241 -71l46 6q61 8 61 74q0 52 49 52q26 0 40 -13.5t14 -38.5q0 -62 -37.5 -103.5zM597 163.5
q63 68.5 63 186.5q0 119 -65.5 187t-184.5 68q-109 0 -169.5 -69.5t-60.5 -185.5q0 -118 63 -186.5t177 -68.5t177 68.5zM379.5 761.5q-15.5 9.5 -15.5 27.5v5q0 17 10.5 31t29.5 30q14 12 20.5 19.5t6.5 15.5q0 9 -6.5 15t-18.5 6q-10 0 -22 -6.5t-22 -17.5
q-11 -12 -28 -12q-15 0 -29 10q-16 12 -16 28q0 10 8 21q19 24 52.5 40t78.5 16q61 0 91.5 -23t30.5 -62q0 -20 -11.5 -35.5t-32.5 -34.5q-16 -14 -23 -22.5t-7 -17.5v-6q0 -18 -15.5 -27.5t-40.5 -9.5t-40.5 9.5z" />
    <glyph glyph-name="uni1EE0" unicode="&#x1ee0;" horiz-adv-x="840" 
d="M833.5 615.5q-37.5 -41.5 -99.5 -52.5q60 -89 60 -213q0 -106 -44 -187.5t-128.5 -127t-201.5 -45.5t-201.5 45.5t-128.5 127t-44 187.5t44 187.5t128.5 127t201.5 45.5q145 0 241 -71l46 6q61 8 61 74q0 52 49 52q26 0 40 -13.5t14 -38.5q0 -62 -37.5 -103.5zM597 163.5
q63 68.5 63 186.5q0 119 -65.5 187t-184.5 68q-109 0 -169.5 -69.5t-60.5 -185.5q0 -118 63 -186.5t177 -68.5t177 68.5zM232.5 809q-7.5 9 -7.5 22t5 23q18 41 45 62.5t69 21.5q27 0 49 -9.5t50 -26.5q4 -2 14.5 -8.5t18.5 -9.5t15 -3q13 0 22 7t17 25q16 32 41 32
q20 0 32.5 -10.5t12.5 -27.5q0 -13 -5 -23q-18 -41 -45 -62.5t-69 -21.5q-25 0 -45 8.5t-45 24.5q-17 12 -30 18t-27 6q-13 0 -22 -7t-17 -25q-16 -32 -41 -32q-8 0 -17 3q-13 4 -20.5 13z" />
    <glyph glyph-name="Ohungarumlaut" unicode="&#x150;" horiz-adv-x="840" 
d="M218.5 35.5q-84.5 45.5 -128.5 127t-44 187.5t44 187.5t128.5 127t201.5 45.5t201.5 -45.5t128.5 -127t44 -187.5t-44 -187.5t-128.5 -127t-201.5 -45.5t-201.5 45.5zM597 163.5q63 68.5 63 186.5q0 119 -65.5 187t-184.5 68q-109 0 -169.5 -69.5t-60.5 -185.5
q0 -118 63 -186.5t177 -68.5t177 68.5zM479 812q0 16 10 35l71 132q18 34 52 34q17 0 35 -9q16 -8 25 -20t9 -26q0 -15 -12 -32l-95 -130q-19 -27 -46 -27q-13 0 -26 7q-23 12 -23 36zM310 811q0 17 9 36l57 133q13 33 52 33q16 0 35 -8q32 -13 32 -45q0 -17 -10 -33
l-81 -131q-8 -13 -20 -20t-25 -7q-14 0 -27 7q-22 12 -22 35z" />
    <glyph glyph-name="Omacron" unicode="&#x14c;" horiz-adv-x="840" 
d="M218.5 35.5q-84.5 45.5 -128.5 127t-44 187.5t44 187.5t128.5 127t201.5 45.5t201.5 -45.5t128.5 -127t44 -187.5t-44 -187.5t-128.5 -127t-201.5 -45.5t-201.5 45.5zM597 163.5q63 68.5 63 186.5q0 119 -65.5 187t-184.5 68q-109 0 -169.5 -69.5t-60.5 -185.5
q0 -118 63 -186.5t177 -68.5t177 68.5zM237 814q0 22 12.5 31.5t39.5 9.5h256q27 0 39.5 -9.5t12.5 -31.5q0 -40 -52 -40h-256q-52 0 -52 40z" />
    <glyph glyph-name="Oslash" unicode="&#xd8;" horiz-adv-x="828" 
d="M744 537q44 -80 44 -187q0 -109 -45.5 -190.5t-130.5 -125.5t-198 -44q-51 0 -98 9l-17 -37q-7 -15 -21.5 -23.5t-32.5 -8.5q-13 0 -29 7t-24.5 20t-8.5 29q0 12 6 26l13 29q-77 46 -119.5 125t-42.5 184q0 109 45.5 190.5t130.5 125.5t198 44q45 0 91 -8l18 39
q7 16 21 24.5t31 8.5q16 0 29 -7q18 -8 27.5 -21t9.5 -28q0 -10 -4 -18l-17 -38q80 -45 124 -125zM189 229.5q21 -52.5 60 -86.5l212 463q-22 5 -58 5q-109 0 -172 -70t-63 -191q0 -68 21 -120.5zM594.5 158.5q65.5 69.5 65.5 191.5q0 70 -22.5 123t-64.5 87l-214 -466
q28 -5 55 -5q115 0 180.5 69.5z" />
    <glyph glyph-name="Oslashacute" unicode="&#x1fe;" horiz-adv-x="828" 
d="M744 537q44 -80 44 -187q0 -109 -45.5 -190.5t-130.5 -125.5t-198 -44q-51 0 -98 9l-17 -37q-7 -15 -21.5 -23.5t-32.5 -8.5q-13 0 -29 7t-24.5 20t-8.5 29q0 12 6 26l13 29q-77 46 -119.5 125t-42.5 184q0 109 45.5 190.5t130.5 125.5t198 44q45 0 91 -8l18 39
q7 16 21 24.5t31 8.5q16 0 29 -7q18 -8 27.5 -21t9.5 -28q0 -10 -4 -18l-17 -38q80 -45 124 -125zM189 229.5q21 -52.5 60 -86.5l212 463q-22 5 -58 5q-109 0 -172 -70t-63 -191q0 -68 21 -120.5zM594.5 158.5q65.5 69.5 65.5 191.5q0 70 -22.5 123t-64.5 87l-214 -466
q28 -5 55 -5q115 0 180.5 69.5zM384.5 789.5q-6.5 10.5 -6.5 22.5q0 9 3 16l57 146q15 40 50 40q17 0 33 -8q38 -18 38 -48q0 -13 -9 -27l-81 -139q-7 -11 -18.5 -17.5t-25.5 -6.5t-23 5q-11 6 -17.5 16.5z" />
    <glyph glyph-name="Otilde" unicode="&#xd5;" horiz-adv-x="840" 
d="M218.5 35.5q-84.5 45.5 -128.5 127t-44 187.5t44 187.5t128.5 127t201.5 45.5t201.5 -45.5t128.5 -127t44 -187.5t-44 -187.5t-128.5 -127t-201.5 -45.5t-201.5 45.5zM597 163.5q63 68.5 63 186.5q0 119 -65.5 187t-184.5 68q-109 0 -169.5 -69.5t-60.5 -185.5
q0 -118 63 -186.5t177 -68.5t177 68.5zM231.5 809q-7.5 9 -7.5 22t5 23q18 41 45 62.5t69 21.5q27 0 49 -9.5t50 -26.5q4 -2 14.5 -8.5t18.5 -9.5t15 -3q13 0 22 7t17 25q16 32 41 32q20 0 32.5 -10.5t12.5 -27.5q0 -13 -5 -23q-18 -41 -45 -62.5t-69 -21.5q-25 0 -45 8.5
t-45 24.5q-17 12 -30 18t-27 6q-13 0 -22 -7t-17 -25q-16 -32 -41 -32q-8 0 -17 3q-13 4 -20.5 13z" />
    <glyph glyph-name="OE" unicode="&#x152;" horiz-adv-x="1245" 
d="M222 34q-85 44 -130.5 125.5t-45.5 190.5t45.5 190.5t130.5 125.5t198 44q153 0 257 -120v7q0 46 34.5 74.5t89.5 28.5h314q30 0 46 -13.5t16 -38.5q0 -24 -16.5 -37.5t-45.5 -13.5h-278q-20 0 -31.5 -13t-11.5 -36v-139h245q30 0 46 -13.5t16 -38.5q0 -24 -16.5 -37.5
t-45.5 -13.5h-245v-154q0 -23 11.5 -36t31.5 -13h300q30 0 46 -13.5t16 -38.5q0 -24 -16.5 -37.5t-45.5 -13.5h-329q-55 0 -92 29.5t-37 72.5v7q-56 -64 -115.5 -91.5t-143.5 -27.5q-113 0 -198 44zM596 163q64 68 64 187q0 121 -66 188t-185 67q-106 0 -167.5 -68.5
t-61.5 -186.5q0 -119 64 -187t176 -68t176 68z" />
    <glyph glyph-name="P" unicode="P" horiz-adv-x="734" 
d="M74 6q-18 16 -18 44v502q0 70 40.5 109t112.5 39h169q152 0 231 -63t79 -185t-77 -185t-227 -63h-195v-154q0 -27 -18.5 -43.5t-48.5 -16.5t-48 16zM554 452q0 145 -171 145h-151q-20 0 -31.5 -13t-11.5 -36v-241h194q171 0 171 145z" />
    <glyph glyph-name="Thorn" unicode="&#xde;" horiz-adv-x="644" 
d="M68 6q-18 16 -18 44v601q0 28 18 44t48 16q31 0 49 -16.5t18 -43.5v-63h166q118 0 186.5 -59.5t68.5 -160.5t-68.5 -160.5t-186.5 -59.5h-166v-98q0 -27 -18 -43.5t-49 -16.5q-30 0 -48 16zM349 251q55 0 88 32t33 85t-33 85t-88 32h-166v-234h166z" />
    <glyph glyph-name="Q" unicode="Q" horiz-adv-x="840" 
d="M670 -41q-14 0 -26.5 7t-19.5 20q0 1 -23 41q-82 -37 -188 -37q-114 0 -197 46t-126.5 127.5t-43.5 186.5q0 106 44 187.5t128.5 127t201.5 45.5t201.5 -45.5t128.5 -127t44 -187.5q0 -80 -26 -147t-75 -114q5 -9 8.5 -14.5t5.5 -9.5q9 -14 11 -18q10 -20 10 -35
q0 -28 -30 -45q-14 -8 -28 -8zM312 258.5q52 22.5 105 22.5q58 0 111.5 -23t91.5 -65q40 65 40 157q0 119 -65.5 187t-184.5 68q-109 0 -169.5 -69.5t-60.5 -185.5q0 -92 38 -154q42 40 94 62.5zM539 121q-22 28 -53.5 43.5t-66.5 15.5q-36 0 -68 -15t-54 -42
q53 -28 123 -28q69 0 119 26z" />
    <glyph glyph-name="R" unicode="R" horiz-adv-x="734" 
d="M56 552q0 70 40.5 109t112.5 39h178q149 0 225 -58t76 -173q0 -107 -63.5 -167t-170.5 -60l152 -151q18 -18 18 -41q0 -24 -21 -42q-22 -17 -43 -17q-29 0 -53 26l-216 221h-102v-188q0 -28 -19 -44t-48 -16q-30 0 -48 16t-18 44v502zM383 341q66 0 103 13t52.5 40.5
t15.5 74.5q0 68 -41.5 98t-129.5 30h-151q-20 0 -31.5 -13t-11.5 -36v-207h194z" />
    <glyph glyph-name="Racute" unicode="&#x154;" horiz-adv-x="734" 
d="M56 552q0 70 40.5 109t112.5 39h178q149 0 225 -58t76 -173q0 -107 -63.5 -167t-170.5 -60l152 -151q18 -18 18 -41q0 -24 -21 -42q-22 -17 -43 -17q-29 0 -53 26l-216 221h-102v-188q0 -28 -19 -44t-48 -16q-30 0 -48 16t-18 44v502zM383 341q66 0 103 13t52.5 40.5
t15.5 74.5q0 68 -41.5 98t-129.5 30h-151q-20 0 -31.5 -13t-11.5 -36v-207h194zM317.5 789.5q-6.5 10.5 -6.5 22.5q0 9 3 16l57 146q15 40 50 40q17 0 33 -8q38 -18 38 -48q0 -13 -9 -27l-81 -139q-7 -11 -18.5 -17.5t-25.5 -6.5t-23 5q-11 6 -17.5 16.5z" />
    <glyph glyph-name="Rcaron" unicode="&#x158;" horiz-adv-x="734" 
d="M56 552q0 70 40.5 109t112.5 39h178q149 0 225 -58t76 -173q0 -107 -63.5 -167t-170.5 -60l152 -151q18 -18 18 -41q0 -24 -21 -42q-22 -17 -43 -17q-29 0 -53 26l-216 221h-102v-188q0 -28 -19 -44t-48 -16q-30 0 -48 16t-18 44v502zM383 341q66 0 103 13t52.5 40.5
t15.5 74.5q0 68 -41.5 98t-129.5 30h-151q-20 0 -31.5 -13t-11.5 -36v-207h194zM296 787l-105 126q-15 18 -15 37q0 23 21 39q17 12 33 12q24 0 45 -27l72 -100l72 100q21 27 45 27q17 0 33 -12q21 -16 21 -39q0 -19 -15 -37l-105 -126q-21 -24 -51 -24t-51 24z" />
    <glyph glyph-name="uni0156" unicode="&#x156;" horiz-adv-x="734" 
d="M56 552q0 70 40.5 109t112.5 39h178q149 0 225 -58t76 -173q0 -107 -63.5 -167t-170.5 -60l152 -151q18 -18 18 -41q0 -24 -21 -42q-22 -17 -43 -17q-29 0 -53 26l-216 221h-102v-188q0 -28 -19 -44t-48 -16q-30 0 -48 16t-18 44v502zM383 341q66 0 103 13t52.5 40.5
t15.5 74.5q0 68 -41.5 98t-129.5 30h-151q-20 0 -31.5 -13t-11.5 -36v-207h194zM260 -296q0 15 21 36q26 26 37 61q-29 0 -46.5 17.5t-17.5 45.5q0 34 24.5 53.5t60.5 19.5q40 0 63 -24.5t23 -65.5q0 -34 -25 -76t-63 -72q-27 -22 -45 -22q-11 0 -24 11q-8 8 -8 16z" />
    <glyph glyph-name="uni1E5A" unicode="&#x1e5a;" horiz-adv-x="734" 
d="M56 552q0 70 40.5 109t112.5 39h178q149 0 225 -58t76 -173q0 -107 -63.5 -167t-170.5 -60l152 -151q18 -18 18 -41q0 -24 -21 -42q-22 -17 -43 -17q-29 0 -53 26l-216 221h-102v-188q0 -28 -19 -44t-48 -16q-30 0 -48 16t-18 44v502zM383 341q66 0 103 13t52.5 40.5
t15.5 74.5q0 68 -41.5 98t-129.5 30h-151q-20 0 -31.5 -13t-11.5 -36v-207h194zM279.5 -192q-21.5 20 -21.5 54q0 35 21.5 55t59.5 20q37 0 58.5 -20t21.5 -55q0 -34 -21.5 -54t-58.5 -20q-38 0 -59.5 20z" />
    <glyph glyph-name="uni1E5C" unicode="&#x1e5c;" horiz-adv-x="734" 
d="M56 552q0 70 40.5 109t112.5 39h178q149 0 225 -58t76 -173q0 -107 -63.5 -167t-170.5 -60l152 -151q18 -18 18 -41q0 -24 -21 -42q-22 -17 -43 -17q-29 0 -53 26l-216 221h-102v-188q0 -28 -19 -44t-48 -16q-30 0 -48 16t-18 44v502zM383 341q66 0 103 13t52.5 40.5
t15.5 74.5q0 68 -41.5 98t-129.5 30h-151q-20 0 -31.5 -13t-11.5 -36v-207h194zM279.5 -192q-21.5 20 -21.5 54q0 35 21.5 55t59.5 20q37 0 58.5 -20t21.5 -55q0 -34 -21.5 -54t-58.5 -20q-38 0 -59.5 20zM164 814q0 22 12.5 31.5t39.5 9.5h256q27 0 39.5 -9.5t12.5 -31.5
q0 -40 -52 -40h-256q-52 0 -52 40z" />
    <glyph glyph-name="uni1E5E" unicode="&#x1e5e;" horiz-adv-x="734" 
d="M56 552q0 70 40.5 109t112.5 39h178q149 0 225 -58t76 -173q0 -107 -63.5 -167t-170.5 -60l152 -151q18 -18 18 -41q0 -24 -21 -42q-22 -17 -43 -17q-29 0 -53 26l-216 221h-102v-188q0 -28 -19 -44t-48 -16q-30 0 -48 16t-18 44v502zM383 341q66 0 103 13t52.5 40.5
t15.5 74.5q0 68 -41.5 98t-129.5 30h-151q-20 0 -31.5 -13t-11.5 -36v-207h194zM159 -124q0 22 12.5 31.5t39.5 9.5h256q27 0 39.5 -9.5t12.5 -31.5q0 -40 -52 -40h-256q-52 0 -52 40z" />
    <glyph glyph-name="S" unicode="S" horiz-adv-x="714" 
d="M210 22.5q-86 32.5 -149 93.5q-15 15 -15 34q0 22 20 42q16 16 35 16q20 0 48 -23q47 -43 111.5 -66.5t133.5 -23.5q66 0 103 22.5t37 63.5q0 43 -40 69.5t-136 47.5q-151 33 -219.5 87t-68.5 139q0 54 36 96.5t100.5 66t147.5 23.5q93 0 165.5 -30.5t110.5 -85.5
q13 -21 13 -36q-1 -25 -25 -43q-13 -9 -30 -9q-31 0 -51 24q-29 35 -77.5 55t-105.5 20q-71 0 -110.5 -21.5t-39.5 -59.5t38.5 -62.5t133.5 -46.5q105 -25 169 -56.5t93.5 -74.5t29.5 -103q0 -57 -34 -100.5t-96 -67t-144 -23.5q-98 0 -184 32.5z" />
    <glyph glyph-name="Sacute" unicode="&#x15a;" horiz-adv-x="714" 
d="M210 22.5q-86 32.5 -149 93.5q-15 15 -15 34q0 22 20 42q16 16 35 16q20 0 48 -23q47 -43 111.5 -66.5t133.5 -23.5q66 0 103 22.5t37 63.5q0 43 -40 69.5t-136 47.5q-151 33 -219.5 87t-68.5 139q0 54 36 96.5t100.5 66t147.5 23.5q93 0 165.5 -30.5t110.5 -85.5
q13 -21 13 -36q-1 -25 -25 -43q-13 -9 -30 -9q-31 0 -51 24q-29 35 -77.5 55t-105.5 20q-71 0 -110.5 -21.5t-39.5 -59.5t38.5 -62.5t133.5 -46.5q105 -25 169 -56.5t93.5 -74.5t29.5 -103q0 -57 -34 -100.5t-96 -67t-144 -23.5q-98 0 -184 32.5zM327.5 789.5
q-6.5 10.5 -6.5 22.5q0 9 3 16l57 146q15 40 50 40q17 0 33 -8q38 -18 38 -48q0 -13 -9 -27l-81 -139q-7 -11 -18.5 -17.5t-25.5 -6.5t-23 5q-11 6 -17.5 16.5z" />
    <glyph glyph-name="Scaron" unicode="&#x160;" horiz-adv-x="714" 
d="M210 22.5q-86 32.5 -149 93.5q-15 15 -15 34q0 22 20 42q16 16 35 16q20 0 48 -23q47 -43 111.5 -66.5t133.5 -23.5q66 0 103 22.5t37 63.5q0 43 -40 69.5t-136 47.5q-151 33 -219.5 87t-68.5 139q0 54 36 96.5t100.5 66t147.5 23.5q93 0 165.5 -30.5t110.5 -85.5
q13 -21 13 -36q-1 -25 -25 -43q-13 -9 -30 -9q-31 0 -51 24q-29 35 -77.5 55t-105.5 20q-71 0 -110.5 -21.5t-39.5 -59.5t38.5 -62.5t133.5 -46.5q105 -25 169 -56.5t93.5 -74.5t29.5 -103q0 -57 -34 -100.5t-96 -67t-144 -23.5q-98 0 -184 32.5zM306 787l-105 126
q-15 18 -15 37q0 23 21 39q17 12 33 12q24 0 45 -27l72 -100l72 100q21 27 45 27q17 0 33 -12q21 -16 21 -39q0 -19 -15 -37l-105 -126q-21 -24 -51 -24t-51 24z" />
    <glyph glyph-name="Scedilla" unicode="&#x15e;" horiz-adv-x="714" 
d="M426 -13l-18 -34q42 -3 66.5 -24.5t24.5 -54.5q0 -38 -29 -65t-86 -27q-45 0 -77.5 15t-51.5 41q-8 11 -8 21q0 13 17 29q13 11 24 11q14 0 27 -16q11 -15 27.5 -22t31.5 -7q17 0 27 6.5t10 19.5q0 32 -43 28q-21 -2 -37 9t-16 28q0 8 4 16l15 32q-80 9 -150 40.5
t-123 82.5q-15 15 -15 34q0 22 20 42q16 16 35 16q20 0 48 -23q47 -43 111.5 -66.5t133.5 -23.5q66 0 103 22.5t37 63.5q0 43 -40 69.5t-136 47.5q-151 33 -219.5 87t-68.5 139q0 54 36 96.5t100.5 66t147.5 23.5q93 0 165.5 -30.5t110.5 -85.5q13 -21 13 -36
q-1 -25 -25 -43q-13 -9 -30 -9q-31 0 -51 24q-29 35 -77.5 55t-105.5 20q-71 0 -110.5 -21.5t-39.5 -59.5t38.5 -62.5t133.5 -46.5q105 -25 169 -56.5t93.5 -74.5t29.5 -103q0 -80 -65 -131t-175 -59z" />
    <glyph glyph-name="Scircumflex" unicode="&#x15c;" horiz-adv-x="714" 
d="M210 22.5q-86 32.5 -149 93.5q-15 15 -15 34q0 22 20 42q16 16 35 16q20 0 48 -23q47 -43 111.5 -66.5t133.5 -23.5q66 0 103 22.5t37 63.5q0 43 -40 69.5t-136 47.5q-151 33 -219.5 87t-68.5 139q0 54 36 96.5t100.5 66t147.5 23.5q93 0 165.5 -30.5t110.5 -85.5
q13 -21 13 -36q-1 -25 -25 -43q-13 -9 -30 -9q-31 0 -51 24q-29 35 -77.5 55t-105.5 20q-71 0 -110.5 -21.5t-39.5 -59.5t38.5 -62.5t133.5 -46.5q105 -25 169 -56.5t93.5 -74.5t29.5 -103q0 -57 -34 -100.5t-96 -67t-144 -23.5q-98 0 -184 32.5zM186 814q0 19 15 37
l105 126q21 24 51 24t51 -24l105 -126q15 -18 15 -37q0 -22 -21 -39q-17 -12 -33 -12q-24 0 -45 27l-72 100l-72 -100q-21 -27 -45 -27q-16 0 -33 12q-21 17 -21 39z" />
    <glyph glyph-name="uni0218" unicode="&#x218;" horiz-adv-x="714" 
d="M210 22.5q-86 32.5 -149 93.5q-15 15 -15 34q0 22 20 42q16 16 35 16q20 0 48 -23q47 -43 111.5 -66.5t133.5 -23.5q66 0 103 22.5t37 63.5q0 43 -40 69.5t-136 47.5q-151 33 -219.5 87t-68.5 139q0 54 36 96.5t100.5 66t147.5 23.5q93 0 165.5 -30.5t110.5 -85.5
q13 -21 13 -36q-1 -25 -25 -43q-13 -9 -30 -9q-31 0 -51 24q-29 35 -77.5 55t-105.5 20q-71 0 -110.5 -21.5t-39.5 -59.5t38.5 -62.5t133.5 -46.5q105 -25 169 -56.5t93.5 -74.5t29.5 -103q0 -57 -34 -100.5t-96 -67t-144 -23.5q-98 0 -184 32.5zM312 -296q0 15 21 36
q26 26 37 61q-29 0 -46.5 17.5t-17.5 45.5q0 34 24.5 53.5t60.5 19.5q40 0 63 -24.5t23 -65.5q0 -34 -25 -76t-63 -72q-27 -22 -45 -22q-11 0 -24 11q-8 8 -8 16z" />
    <glyph glyph-name="uni1E60" unicode="&#x1e60;" horiz-adv-x="714" 
d="M210 22.5q-86 32.5 -149 93.5q-15 15 -15 34q0 22 20 42q16 16 35 16q20 0 48 -23q47 -43 111.5 -66.5t133.5 -23.5q66 0 103 22.5t37 63.5q0 43 -40 69.5t-136 47.5q-151 33 -219.5 87t-68.5 139q0 54 36 96.5t100.5 66t147.5 23.5q93 0 165.5 -30.5t110.5 -85.5
q13 -21 13 -36q-1 -25 -25 -43q-13 -9 -30 -9q-31 0 -51 24q-29 35 -77.5 55t-105.5 20q-71 0 -110.5 -21.5t-39.5 -59.5t38.5 -62.5t133.5 -46.5q105 -25 169 -56.5t93.5 -74.5t29.5 -103q0 -57 -34 -100.5t-96 -67t-144 -23.5q-98 0 -184 32.5zM299 798.5
q-23 21.5 -23 52.5q0 32 23 53.5t58 21.5q34 0 57 -21.5t23 -53.5q0 -31 -23 -52.5t-57 -21.5q-35 0 -58 21.5z" />
    <glyph glyph-name="uni1E62" unicode="&#x1e62;" horiz-adv-x="714" 
d="M210 22.5q-86 32.5 -149 93.5q-15 15 -15 34q0 22 20 42q16 16 35 16q20 0 48 -23q47 -43 111.5 -66.5t133.5 -23.5q66 0 103 22.5t37 63.5q0 43 -40 69.5t-136 47.5q-151 33 -219.5 87t-68.5 139q0 54 36 96.5t100.5 66t147.5 23.5q93 0 165.5 -30.5t110.5 -85.5
q13 -21 13 -36q-1 -25 -25 -43q-13 -9 -30 -9q-31 0 -51 24q-29 35 -77.5 55t-105.5 20q-71 0 -110.5 -21.5t-39.5 -59.5t38.5 -62.5t133.5 -46.5q105 -25 169 -56.5t93.5 -74.5t29.5 -103q0 -57 -34 -100.5t-96 -67t-144 -23.5q-98 0 -184 32.5zM331.5 -192
q-21.5 20 -21.5 54q0 35 21.5 55t59.5 20q37 0 58.5 -20t21.5 -55q0 -34 -21.5 -54t-58.5 -20q-38 0 -59.5 20z" />
    <glyph glyph-name="uni1E9E" unicode="&#x1e9e;" horiz-adv-x="662" 
d="M301 8.5q-48 19.5 -73 50.5q-13 16 -13 34q0 22 20 39q16 14 36 14q22 0 42 -17q42 -36 89 -36q88 0 88 95q0 54 -29.5 79.5t-91.5 25.5h-55q-34 0 -50.5 12t-16.5 38q0 23 19 36t52 13l106 118q-2 40 -33 63t-83 23q-132 0 -132 -143v-405q0 -20 -19.5 -34.5
t-45.5 -14.5t-46 15t-20 34v405q0 73 33 129t92.5 87t137.5 31q72 0 128 -26t87 -72t31 -105l-110 -115q178 -38 178 -194q0 -59 -27.5 -104t-77.5 -70t-115 -25q-53 0 -101 19.5z" />
    <glyph glyph-name="uni018F" unicode="&#x18f;" horiz-adv-x="830" 
d="M219 27q-86 36 -132.5 102.5t-46.5 154.5q0 55 33.5 87.5t90.5 32.5h492q0 95 -64 148t-178 53q-154 0 -231 -73q-29 -26 -57 -26q-22 0 -39 14q-22 20 -22 36q0 17 22 42q48 52 136 82t191 30q117 0 201.5 -43.5t129.5 -125.5t45 -196q0 -109 -45 -188.5t-128.5 -122.5
t-197.5 -43t-200 36zM594 149.5q62 53.5 62 151.5h-467q-8 0 -13 -5t-5 -13q0 -89 65 -138t183 -49q113 0 175 53.5z" />
    <glyph glyph-name="T" unicode="T" horiz-adv-x="695" 
d="M299 6q-18 16 -18 44v547h-193q-29 0 -45.5 13.5t-16.5 37.5q0 25 16 38.5t46 13.5h519q30 0 46 -13.5t16 -38.5q0 -24 -16.5 -37.5t-45.5 -13.5h-193v-547q0 -27 -18.5 -43.5t-48.5 -16.5t-48 16z" />
    <glyph glyph-name="Tbar" unicode="&#x166;" horiz-adv-x="695" 
d="M653 686.5q16 -13.5 16 -38.5q0 -24 -16.5 -37.5t-45.5 -13.5h-193v-198h86q60 0 60 -51q0 -24 -15.5 -37t-44.5 -13h-86v-248q0 -27 -18.5 -43.5t-48.5 -16.5t-48 16t-18 44v248h-79q-29 0 -44.5 13t-15.5 37q0 51 60 51h79v198h-193q-29 0 -45.5 13.5t-16.5 37.5
q0 25 16 38.5t46 13.5h519q30 0 46 -13.5z" />
    <glyph glyph-name="Tcaron" unicode="&#x164;" horiz-adv-x="695" 
d="M299 6q-18 16 -18 44v547h-193q-29 0 -45.5 13.5t-16.5 37.5q0 25 16 38.5t46 13.5h519q30 0 46 -13.5t16 -38.5q0 -24 -16.5 -37.5t-45.5 -13.5h-193v-547q0 -27 -18.5 -43.5t-48.5 -16.5t-48 16zM297 787l-105 126q-15 18 -15 37q0 23 21 39q17 12 33 12q24 0 45 -27
l72 -100l72 100q21 27 45 27q17 0 33 -12q21 -16 21 -39q0 -19 -15 -37l-105 -126q-21 -24 -51 -24t-51 24z" />
    <glyph glyph-name="uni0162" unicode="&#x162;" horiz-adv-x="695" 
d="M653 686.5q16 -13.5 16 -38.5q0 -24 -16.5 -37.5t-45.5 -13.5h-193v-547q0 -28 -20 -45q0 -10 -4 -18l-18 -34q42 -3 66.5 -24.5t24.5 -54.5q0 -38 -29 -65t-86 -27q-45 0 -77.5 15t-51.5 41q-8 11 -8 21q0 13 17 29q13 11 24 11q14 0 27 -16q11 -15 27.5 -22t31.5 -7
q17 0 27 6.5t10 19.5q0 32 -43 28q-21 -2 -37 9t-16 28q0 8 4 16l20 42q-22 16 -22 47v547h-193q-29 0 -45.5 13.5t-16.5 37.5q0 25 16 38.5t46 13.5h519q30 0 46 -13.5z" />
    <glyph glyph-name="uni021A" unicode="&#x21a;" horiz-adv-x="695" 
d="M299 6q-18 16 -18 44v547h-193q-29 0 -45.5 13.5t-16.5 37.5q0 25 16 38.5t46 13.5h519q30 0 46 -13.5t16 -38.5q0 -24 -16.5 -37.5t-45.5 -13.5h-193v-547q0 -27 -18.5 -43.5t-48.5 -16.5t-48 16zM269 -296q0 15 21 36q26 26 37 61q-29 0 -46.5 17.5t-17.5 45.5
q0 34 24.5 53.5t60.5 19.5q40 0 63 -24.5t23 -65.5q0 -34 -25 -76t-63 -72q-27 -22 -45 -22q-11 0 -24 11q-8 8 -8 16z" />
    <glyph glyph-name="uni1E6C" unicode="&#x1e6c;" horiz-adv-x="695" 
d="M299 6q-18 16 -18 44v547h-193q-29 0 -45.5 13.5t-16.5 37.5q0 25 16 38.5t46 13.5h519q30 0 46 -13.5t16 -38.5q0 -24 -16.5 -37.5t-45.5 -13.5h-193v-547q0 -27 -18.5 -43.5t-48.5 -16.5t-48 16zM288.5 -192q-21.5 20 -21.5 54q0 35 21.5 55t59.5 20q37 0 58.5 -20
t21.5 -55q0 -34 -21.5 -54t-58.5 -20q-38 0 -59.5 20z" />
    <glyph glyph-name="uni1E6E" unicode="&#x1e6e;" horiz-adv-x="695" 
d="M299 6q-18 16 -18 44v547h-193q-29 0 -45.5 13.5t-16.5 37.5q0 25 16 38.5t46 13.5h519q30 0 46 -13.5t16 -38.5q0 -24 -16.5 -37.5t-45.5 -13.5h-193v-547q0 -27 -18.5 -43.5t-48.5 -16.5t-48 16zM168 -124q0 22 12.5 31.5t39.5 9.5h256q27 0 39.5 -9.5t12.5 -31.5
q0 -40 -52 -40h-256q-52 0 -52 40z" />
    <glyph glyph-name="U" unicode="U" horiz-adv-x="732" 
d="M198.5 28q-70.5 38 -109 108.5t-38.5 166.5v347q0 28 18 44t48 16t48.5 -16.5t18.5 -43.5v-350q0 -99 47 -152t135 -53q87 0 134.5 53.5t47.5 151.5v350q0 27 18.5 43.5t48.5 16.5t48 -16t18 -44v-347q0 -93 -39.5 -164t-111.5 -110t-167 -39q-94 0 -164.5 38z" />
    <glyph glyph-name="Uacute" unicode="&#xda;" horiz-adv-x="732" 
d="M198.5 28q-70.5 38 -109 108.5t-38.5 166.5v347q0 28 18 44t48 16t48.5 -16.5t18.5 -43.5v-350q0 -99 47 -152t135 -53q87 0 134.5 53.5t47.5 151.5v350q0 27 18.5 43.5t48.5 16.5t48 -16t18 -44v-347q0 -93 -39.5 -164t-111.5 -110t-167 -39q-94 0 -164.5 38z
M336.5 789.5q-6.5 10.5 -6.5 22.5q0 9 3 16l57 146q15 40 50 40q17 0 33 -8q38 -18 38 -48q0 -13 -9 -27l-81 -139q-7 -11 -18.5 -17.5t-25.5 -6.5t-23 5q-11 6 -17.5 16.5z" />
    <glyph glyph-name="Ubreve" unicode="&#x16c;" horiz-adv-x="732" 
d="M198.5 28q-70.5 38 -109 108.5t-38.5 166.5v347q0 28 18 44t48 16t48.5 -16.5t18.5 -43.5v-350q0 -99 47 -152t135 -53q87 0 134.5 53.5t47.5 151.5v350q0 27 18.5 43.5t48.5 16.5t48 -16t18 -44v-347q0 -93 -39.5 -164t-111.5 -110t-167 -39q-94 0 -164.5 38zM225 812
q-52 46 -52 124q0 28 16 43t45 15t45 -15t16 -43q0 -37 18.5 -57t52.5 -20t52.5 20t18.5 57q0 28 16 43t45 15t45 -15t16 -43q0 -78 -52 -124t-141 -46t-141 46z" />
    <glyph glyph-name="uni01D3" unicode="&#x1d3;" horiz-adv-x="732" 
d="M198.5 28q-70.5 38 -109 108.5t-38.5 166.5v347q0 28 18 44t48 16t48.5 -16.5t18.5 -43.5v-350q0 -99 47 -152t135 -53q87 0 134.5 53.5t47.5 151.5v350q0 27 18.5 43.5t48.5 16.5t48 -16t18 -44v-347q0 -93 -39.5 -164t-111.5 -110t-167 -39q-94 0 -164.5 38zM315 787
l-105 126q-15 18 -15 37q0 23 21 39q17 12 33 12q24 0 45 -27l72 -100l72 100q21 27 45 27q17 0 33 -12q21 -16 21 -39q0 -19 -15 -37l-105 -126q-21 -24 -51 -24t-51 24z" />
    <glyph glyph-name="Ucircumflex" unicode="&#xdb;" horiz-adv-x="732" 
d="M198.5 28q-70.5 38 -109 108.5t-38.5 166.5v347q0 28 18 44t48 16t48.5 -16.5t18.5 -43.5v-350q0 -99 47 -152t135 -53q87 0 134.5 53.5t47.5 151.5v350q0 27 18.5 43.5t48.5 16.5t48 -16t18 -44v-347q0 -93 -39.5 -164t-111.5 -110t-167 -39q-94 0 -164.5 38zM195 814
q0 19 15 37l105 126q21 24 51 24t51 -24l105 -126q15 -18 15 -37q0 -22 -21 -39q-17 -12 -33 -12q-24 0 -45 27l-72 100l-72 -100q-21 -27 -45 -27q-16 0 -33 12q-21 17 -21 39z" />
    <glyph glyph-name="Udieresis" unicode="&#xdc;" horiz-adv-x="732" 
d="M198.5 28q-70.5 38 -109 108.5t-38.5 166.5v347q0 28 18 44t48 16t48.5 -16.5t18.5 -43.5v-350q0 -99 47 -152t135 -53q87 0 134.5 53.5t47.5 151.5v350q0 27 18.5 43.5t48.5 16.5t48 -16t18 -44v-347q0 -93 -39.5 -164t-111.5 -110t-167 -39q-94 0 -164.5 38zM198 805.5
q-20 19.5 -20 48.5t19.5 49t51.5 20q31 0 50.5 -19.5t19.5 -49.5q0 -28 -19.5 -48t-50.5 -20t-51 19.5zM434 805.5q-20 19.5 -20 48.5t19.5 49t51.5 20q31 0 50.5 -19.5t19.5 -49.5q0 -28 -19.5 -48t-50.5 -20t-51 19.5z" />
    <glyph glyph-name="uni01D7" unicode="&#x1d7;" horiz-adv-x="732" 
d="M198.5 28q-70.5 38 -109 108.5t-38.5 166.5v347q0 28 18 44t48 16t48.5 -16.5t18.5 -43.5v-350q0 -99 47 -152t135 -53q87 0 134.5 53.5t47.5 151.5v350q0 27 18.5 43.5t48.5 16.5t48 -16t18 -44v-347q0 -93 -39.5 -164t-111.5 -110t-167 -39q-94 0 -164.5 38z
M330.5 925.5q-5.5 9.5 -5.5 21.5q0 9 3 18l46 124q7 19 21.5 29t31.5 10q13 0 27 -6q15 -8 24 -21t9 -28q0 -14 -7 -25l-70 -117q-7 -12 -18 -18.5t-25 -6.5q-12 0 -21 5q-10 5 -15.5 14.5zM196 805.5q-20 19.5 -20 48.5t19.5 49t51.5 20q31 0 50.5 -19.5t19.5 -49.5
q0 -28 -19.5 -48t-50.5 -20t-51 19.5zM432 805.5q-20 19.5 -20 48.5t19.5 49t51.5 20q31 0 50.5 -19.5t19.5 -49.5q0 -28 -19.5 -48t-50.5 -20t-51 19.5z" />
    <glyph glyph-name="uni01D9" unicode="&#x1d9;" horiz-adv-x="732" 
d="M198.5 28q-70.5 38 -109 108.5t-38.5 166.5v347q0 28 18 44t48 16t48.5 -16.5t18.5 -43.5v-350q0 -99 47 -152t135 -53q87 0 134.5 53.5t47.5 151.5v350q0 27 18.5 43.5t48.5 16.5t48 -16t18 -44v-347q0 -93 -39.5 -164t-111.5 -110t-167 -39q-94 0 -164.5 38zM323 939
l-92 110q-13 14 -13 32q0 21 18 34q14 11 29 11q21 0 39 -24l63 -87l63 87q18 24 40 24q14 0 28 -11q18 -15 18 -34q0 -18 -13 -32l-92 -110q-18 -21 -44 -21t-44 21zM198.5 806q-19.5 20 -19.5 48q0 30 19.5 49.5t50.5 19.5q32 0 51.5 -20t19.5 -49t-20 -48.5t-51 -19.5
t-50.5 20zM434.5 806q-19.5 20 -19.5 48q0 30 19.5 49.5t50.5 19.5q32 0 51.5 -20t19.5 -49t-20 -48.5t-51 -19.5t-50.5 20z" />
    <glyph glyph-name="uni01DB" unicode="&#x1db;" horiz-adv-x="732" 
d="M198.5 28q-70.5 38 -109 108.5t-38.5 166.5v347q0 28 18 44t48 16t48.5 -16.5t18.5 -43.5v-350q0 -99 47 -152t135 -53q87 0 134.5 53.5t47.5 151.5v350q0 27 18.5 43.5t48.5 16.5t48 -16t18 -44v-347q0 -93 -39.5 -164t-111.5 -110t-167 -39q-94 0 -164.5 38zM365 906
q-14 0 -25 6.5t-18 18.5l-70 117q-7 11 -7 25q0 15 9 28t24 21q13 6 27 6q17 0 31.5 -10t21.5 -29l46 -124q3 -9 3 -18q0 -12 -5.5 -21.5t-15.5 -14.5q-9 -5 -21 -5zM198.5 806q-19.5 20 -19.5 48q0 30 19.5 49.5t50.5 19.5q32 0 51.5 -20t19.5 -49t-20 -48.5t-51 -19.5
t-50.5 20zM434.5 806q-19.5 20 -19.5 48q0 30 19.5 49.5t50.5 19.5q32 0 51.5 -20t19.5 -49t-20 -48.5t-51 -19.5t-50.5 20z" />
    <glyph glyph-name="uni01D5" unicode="&#x1d5;" horiz-adv-x="732" 
d="M198.5 28q-70.5 38 -109 108.5t-38.5 166.5v347q0 28 18 44t48 16t48.5 -16.5t18.5 -43.5v-350q0 -99 47 -152t135 -53q87 0 134.5 53.5t47.5 151.5v350q0 27 18.5 43.5t48.5 16.5t48 -16t18 -44v-347q0 -93 -39.5 -164t-111.5 -110t-167 -39q-94 0 -164.5 38zM197 805.5
q-20 19.5 -20 48.5t19.5 49t51.5 20q31 0 50.5 -19.5t19.5 -49.5q0 -28 -19.5 -48t-50.5 -20t-51 19.5zM433 805.5q-20 19.5 -20 48.5t19.5 49t51.5 20q31 0 50.5 -19.5t19.5 -49.5q0 -28 -19.5 -48t-50.5 -20t-51 19.5zM182 1017q0 22 12.5 31.5t39.5 9.5h256
q27 0 39.5 -9.5t12.5 -31.5q0 -40 -52 -40h-256q-52 0 -52 40z" />
    <glyph glyph-name="uni1EE4" unicode="&#x1ee4;" horiz-adv-x="732" 
d="M198.5 28q-70.5 38 -109 108.5t-38.5 166.5v347q0 28 18 44t48 16t48.5 -16.5t18.5 -43.5v-350q0 -99 47 -152t135 -53q87 0 134.5 53.5t47.5 151.5v350q0 27 18.5 43.5t48.5 16.5t48 -16t18 -44v-347q0 -93 -39.5 -164t-111.5 -110t-167 -39q-94 0 -164.5 38z
M306.5 -192q-21.5 20 -21.5 54q0 35 21.5 55t59.5 20q37 0 58.5 -20t21.5 -55q0 -34 -21.5 -54t-58.5 -20q-38 0 -59.5 20z" />
    <glyph glyph-name="Ugrave" unicode="&#xd9;" horiz-adv-x="732" 
d="M198.5 28q-70.5 38 -109 108.5t-38.5 166.5v347q0 28 18 44t48 16t48.5 -16.5t18.5 -43.5v-350q0 -99 47 -152t135 -53q87 0 134.5 53.5t47.5 151.5v350q0 27 18.5 43.5t48.5 16.5t48 -16t18 -44v-347q0 -93 -39.5 -164t-111.5 -110t-167 -39q-94 0 -164.5 38zM381 768
q-14 0 -25.5 6.5t-18.5 17.5l-81 139q-9 14 -9 27q0 30 38 48q16 8 33 8q35 0 50 -40l57 -146q3 -7 3 -16q0 -12 -6.5 -22.5t-17.5 -16.5q-9 -5 -23 -5z" />
    <glyph glyph-name="uni1EE6" unicode="&#x1ee6;" horiz-adv-x="732" 
d="M198.5 28q-70.5 38 -109 108.5t-38.5 166.5v347q0 28 18 44t48 16t48.5 -16.5t18.5 -43.5v-350q0 -99 47 -152t135 -53q87 0 134.5 53.5t47.5 151.5v350q0 27 18.5 43.5t48.5 16.5t48 -16t18 -44v-347q0 -93 -39.5 -164t-111.5 -110t-167 -39q-94 0 -164.5 38z
M325.5 761.5q-15.5 9.5 -15.5 27.5v5q0 17 10.5 31t29.5 30q14 12 20.5 19.5t6.5 15.5q0 9 -6.5 15t-18.5 6q-10 0 -22 -6.5t-22 -17.5q-11 -12 -28 -12q-15 0 -29 10q-16 12 -16 28q0 10 8 21q19 24 52.5 40t78.5 16q61 0 91.5 -23t30.5 -62q0 -20 -11.5 -35.5t-32.5 -34.5
q-16 -14 -23 -22.5t-7 -17.5v-6q0 -18 -15.5 -27.5t-40.5 -9.5t-40.5 9.5z" />
    <glyph glyph-name="Uhorn" unicode="&#x1af;" horiz-adv-x="805" 
d="M831 760.5q14 -13.5 14 -38.5q0 -68 -44.5 -111t-115.5 -48h-4v-260q0 -93 -39.5 -164t-111.5 -110t-167 -39q-94 0 -164.5 38t-109 108.5t-38.5 166.5v347q0 28 18 44t48 16t48.5 -16.5t18.5 -43.5v-350q0 -99 47 -152t135 -53q87 0 134.5 53.5t47.5 151.5v350
q0 27 18.5 43.5t48.5 16.5t48 -16t18 -44v-2q61 8 61 74q0 52 49 52q26 0 40 -13.5z" />
    <glyph glyph-name="uni1EE8" unicode="&#x1ee8;" horiz-adv-x="805" 
d="M831 760.5q14 -13.5 14 -38.5q0 -68 -44.5 -111t-115.5 -48h-4v-260q0 -93 -39.5 -164t-111.5 -110t-167 -39q-94 0 -164.5 38t-109 108.5t-38.5 166.5v347q0 28 18 44t48 16t48.5 -16.5t18.5 -43.5v-350q0 -99 47 -152t135 -53q87 0 134.5 53.5t47.5 151.5v350
q0 27 18.5 43.5t48.5 16.5t48 -16t18 -44v-2q61 8 61 74q0 52 49 52q26 0 40 -13.5zM336.5 789.5q-6.5 10.5 -6.5 22.5q0 9 3 16l57 146q15 40 50 40q17 0 33 -8q38 -18 38 -48q0 -13 -9 -27l-81 -139q-7 -11 -18.5 -17.5t-25.5 -6.5t-23 5q-11 6 -17.5 16.5z" />
    <glyph glyph-name="uni1EF0" unicode="&#x1ef0;" horiz-adv-x="805" 
d="M831 760.5q14 -13.5 14 -38.5q0 -68 -44.5 -111t-115.5 -48h-4v-260q0 -93 -39.5 -164t-111.5 -110t-167 -39q-94 0 -164.5 38t-109 108.5t-38.5 166.5v347q0 28 18 44t48 16t48.5 -16.5t18.5 -43.5v-350q0 -99 47 -152t135 -53q87 0 134.5 53.5t47.5 151.5v350
q0 27 18.5 43.5t48.5 16.5t48 -16t18 -44v-2q61 8 61 74q0 52 49 52q26 0 40 -13.5zM306.5 -192q-21.5 20 -21.5 54q0 35 21.5 55t59.5 20q37 0 58.5 -20t21.5 -55q0 -34 -21.5 -54t-58.5 -20q-38 0 -59.5 20z" />
    <glyph glyph-name="uni1EEA" unicode="&#x1eea;" horiz-adv-x="805" 
d="M831 760.5q14 -13.5 14 -38.5q0 -68 -44.5 -111t-115.5 -48h-4v-260q0 -93 -39.5 -164t-111.5 -110t-167 -39q-94 0 -164.5 38t-109 108.5t-38.5 166.5v347q0 28 18 44t48 16t48.5 -16.5t18.5 -43.5v-350q0 -99 47 -152t135 -53q87 0 134.5 53.5t47.5 151.5v350
q0 27 18.5 43.5t48.5 16.5t48 -16t18 -44v-2q61 8 61 74q0 52 49 52q26 0 40 -13.5zM364 768q-14 0 -25.5 6.5t-18.5 17.5l-81 139q-9 14 -9 27q0 30 38 48q16 8 33 8q35 0 50 -40l57 -146q3 -7 3 -16q0 -12 -6.5 -22.5t-17.5 -16.5q-9 -5 -23 -5z" />
    <glyph glyph-name="uni1EEC" unicode="&#x1eec;" horiz-adv-x="805" 
d="M831 760.5q14 -13.5 14 -38.5q0 -68 -44.5 -111t-115.5 -48h-4v-260q0 -93 -39.5 -164t-111.5 -110t-167 -39q-94 0 -164.5 38t-109 108.5t-38.5 166.5v347q0 28 18 44t48 16t48.5 -16.5t18.5 -43.5v-350q0 -99 47 -152t135 -53q87 0 134.5 53.5t47.5 151.5v350
q0 27 18.5 43.5t48.5 16.5t48 -16t18 -44v-2q61 8 61 74q0 52 49 52q26 0 40 -13.5zM325.5 761.5q-15.5 9.5 -15.5 27.5v5q0 17 10.5 31t29.5 30q14 12 20.5 19.5t6.5 15.5q0 9 -6.5 15t-18.5 6q-10 0 -22 -6.5t-22 -17.5q-11 -12 -28 -12q-15 0 -29 10q-16 12 -16 28
q0 10 8 21q19 24 52.5 40t78.5 16q61 0 91.5 -23t30.5 -62q0 -20 -11.5 -35.5t-32.5 -34.5q-16 -14 -23 -22.5t-7 -17.5v-6q0 -18 -15.5 -27.5t-40.5 -9.5t-40.5 9.5z" />
    <glyph glyph-name="uni1EEE" unicode="&#x1eee;" horiz-adv-x="805" 
d="M831 760.5q14 -13.5 14 -38.5q0 -68 -44.5 -111t-115.5 -48h-4v-260q0 -93 -39.5 -164t-111.5 -110t-167 -39q-94 0 -164.5 38t-109 108.5t-38.5 166.5v347q0 28 18 44t48 16t48.5 -16.5t18.5 -43.5v-350q0 -99 47 -152t135 -53q87 0 134.5 53.5t47.5 151.5v350
q0 27 18.5 43.5t48.5 16.5t48 -16t18 -44v-2q61 8 61 74q0 52 49 52q26 0 40 -13.5zM178.5 809q-7.5 9 -7.5 22t5 23q18 41 45 62.5t69 21.5q27 0 49 -9.5t50 -26.5q4 -2 14.5 -8.5t18.5 -9.5t15 -3q13 0 22 7t17 25q16 32 41 32q20 0 32.5 -10.5t12.5 -27.5q0 -13 -5 -23
q-18 -41 -45 -62.5t-69 -21.5q-25 0 -45 8.5t-45 24.5q-17 12 -30 18t-27 6q-13 0 -22 -7t-17 -25q-16 -32 -41 -32q-8 0 -17 3q-13 4 -20.5 13z" />
    <glyph glyph-name="Uhungarumlaut" unicode="&#x170;" horiz-adv-x="732" 
d="M198.5 28q-70.5 38 -109 108.5t-38.5 166.5v347q0 28 18 44t48 16t48.5 -16.5t18.5 -43.5v-350q0 -99 47 -152t135 -53q87 0 134.5 53.5t47.5 151.5v350q0 27 18.5 43.5t48.5 16.5t48 -16t18 -44v-347q0 -93 -39.5 -164t-111.5 -110t-167 -39q-94 0 -164.5 38zM425 812
q0 16 10 35l71 132q18 34 52 34q17 0 35 -9q16 -8 25 -20t9 -26q0 -15 -12 -32l-95 -130q-19 -27 -46 -27q-13 0 -26 7q-23 12 -23 36zM256 811q0 17 9 36l57 133q13 33 52 33q16 0 35 -8q32 -13 32 -45q0 -17 -10 -33l-81 -131q-8 -13 -20 -20t-25 -7q-14 0 -27 7
q-22 12 -22 35z" />
    <glyph glyph-name="Umacron" unicode="&#x16a;" horiz-adv-x="732" 
d="M198.5 28q-70.5 38 -109 108.5t-38.5 166.5v347q0 28 18 44t48 16t48.5 -16.5t18.5 -43.5v-350q0 -99 47 -152t135 -53q87 0 134.5 53.5t47.5 151.5v350q0 27 18.5 43.5t48.5 16.5t48 -16t18 -44v-347q0 -93 -39.5 -164t-111.5 -110t-167 -39q-94 0 -164.5 38zM183 814
q0 22 12.5 31.5t39.5 9.5h256q27 0 39.5 -9.5t12.5 -31.5q0 -40 -52 -40h-256q-52 0 -52 40z" />
    <glyph glyph-name="Uogonek" unicode="&#x172;" horiz-adv-x="732" 
d="M663 694q18 -16 18 -44v-347q0 -123 -67 -205t-183 -102l-18 -15q-31 -27 -41.5 -41t-10.5 -36q0 -16 11.5 -24t25.5 -8q27 0 43 15q12 11 26 11q13 0 24 -11q13 -13 13 -27t-14 -28q-40 -40 -104 -40q-57 0 -93.5 24t-36.5 74q0 29 10.5 54t33.5 51q-116 17 -182.5 99
t-66.5 209v347q0 28 18 44t48 16t48.5 -16.5t18.5 -43.5v-350q0 -99 47 -152t135 -53q87 0 134.5 53.5t47.5 151.5v350q0 27 18.5 43.5t48.5 16.5t48 -16z" />
    <glyph glyph-name="Uring" unicode="&#x16e;" horiz-adv-x="732" 
d="M198.5 28q-70.5 38 -109 108.5t-38.5 166.5v347q0 28 18 44t48 16t48.5 -16.5t18.5 -43.5v-350q0 -99 47 -152t135 -53q87 0 134.5 53.5t47.5 151.5v350q0 27 18.5 43.5t48.5 16.5t48 -16t18 -44v-347q0 -93 -39.5 -164t-111.5 -110t-167 -39q-94 0 -164.5 38z
M275.5 784.5q-34.5 30.5 -34.5 79.5t34.5 79.5t91.5 30.5t90.5 -30.5t33.5 -79.5t-33.5 -79.5t-90.5 -30.5t-91.5 30.5zM399 831.5q12 11.5 12 32.5t-12 33t-33 12t-33 -12t-12 -33t12 -32.5t33 -11.5t33 11.5z" />
    <glyph glyph-name="Utilde" unicode="&#x168;" horiz-adv-x="732" 
d="M198.5 28q-70.5 38 -109 108.5t-38.5 166.5v347q0 28 18 44t48 16t48.5 -16.5t18.5 -43.5v-350q0 -99 47 -152t135 -53q87 0 134.5 53.5t47.5 151.5v350q0 27 18.5 43.5t48.5 16.5t48 -16t18 -44v-347q0 -93 -39.5 -164t-111.5 -110t-167 -39q-94 0 -164.5 38zM177.5 809
q-7.5 9 -7.5 22t5 23q18 41 45 62.5t69 21.5q27 0 49 -9.5t50 -26.5q4 -2 14.5 -8.5t18.5 -9.5t15 -3q13 0 22 7t17 25q16 32 41 32q20 0 32.5 -10.5t12.5 -27.5q0 -13 -5 -23q-18 -41 -45 -62.5t-69 -21.5q-25 0 -45 8.5t-45 24.5q-17 12 -30 18t-27 6q-13 0 -22 -7
t-17 -25q-16 -32 -41 -32q-8 0 -17 3q-13 4 -20.5 13z" />
    <glyph glyph-name="V" unicode="V" horiz-adv-x="772" 
d="M270 38.5q-46 48.5 -81 160.5l-139 442q-4 12 -4 25q0 44 62 44q31 0 47.5 -12t24.5 -39l138 -450q19 -61 35 -88t33 -27t33 27t35 88l138 450q8 27 24.5 39t47.5 12q62 0 62 -44q0 -13 -4 -25l-139 -442q-35 -112 -81 -160.5t-116 -48.5t-116 48.5z" />
    <glyph glyph-name="W" unicode="W" horiz-adv-x="970" 
d="M194.5 24.5q-33.5 34.5 -47.5 108.5l-99 509q-2 12 -2 17q0 25 16.5 38t45.5 13q60 0 70 -53l95 -535q4 -16 7 -21.5t8 -5.5q12 0 15 26l63 479q7 52 38.5 81t80.5 29t80.5 -29t38.5 -81l63 -479q3 -26 15 -26q5 0 8 5.5t7 21.5l95 535q10 53 70 53q29 0 45.5 -13
t16.5 -38q0 -5 -2 -17l-99 -509q-14 -74 -47.5 -108.5t-89.5 -34.5t-87 34t-41 106l-59 448q-2 15 -5 21t-9 6t-9 -6t-5 -21l-59 -448q-10 -72 -41 -106t-87 -34t-89.5 34.5z" />
    <glyph glyph-name="Wacute" unicode="&#x1e82;" horiz-adv-x="970" 
d="M194.5 24.5q-33.5 34.5 -47.5 108.5l-99 509q-2 12 -2 17q0 25 16.5 38t45.5 13q60 0 70 -53l95 -535q4 -16 7 -21.5t8 -5.5q12 0 15 26l63 479q7 52 38.5 81t80.5 29t80.5 -29t38.5 -81l63 -479q3 -26 15 -26q5 0 8 5.5t7 21.5l95 535q10 53 70 53q29 0 45.5 -13
t16.5 -38q0 -5 -2 -17l-99 -509q-14 -74 -47.5 -108.5t-89.5 -34.5t-87 34t-41 106l-59 448q-2 15 -5 21t-9 6t-9 -6t-5 -21l-59 -448q-10 -72 -41 -106t-87 -34t-89.5 34.5zM455.5 789.5q-6.5 10.5 -6.5 22.5q0 9 3 16l57 146q15 40 50 40q17 0 33 -8q38 -18 38 -48
q0 -13 -9 -27l-81 -139q-7 -11 -18.5 -17.5t-25.5 -6.5t-23 5q-11 6 -17.5 16.5z" />
    <glyph glyph-name="Wcircumflex" unicode="&#x174;" horiz-adv-x="970" 
d="M194.5 24.5q-33.5 34.5 -47.5 108.5l-99 509q-2 12 -2 17q0 25 16.5 38t45.5 13q60 0 70 -53l95 -535q4 -16 7 -21.5t8 -5.5q12 0 15 26l63 479q7 52 38.5 81t80.5 29t80.5 -29t38.5 -81l63 -479q3 -26 15 -26q5 0 8 5.5t7 21.5l95 535q10 53 70 53q29 0 45.5 -13
t16.5 -38q0 -5 -2 -17l-99 -509q-14 -74 -47.5 -108.5t-89.5 -34.5t-87 34t-41 106l-59 448q-2 15 -5 21t-9 6t-9 -6t-5 -21l-59 -448q-10 -72 -41 -106t-87 -34t-89.5 34.5zM314 814q0 19 15 37l105 126q21 24 51 24t51 -24l105 -126q15 -18 15 -37q0 -22 -21 -39
q-17 -12 -33 -12q-24 0 -45 27l-72 100l-72 -100q-21 -27 -45 -27q-16 0 -33 12q-21 17 -21 39z" />
    <glyph glyph-name="Wdieresis" unicode="&#x1e84;" horiz-adv-x="970" 
d="M194.5 24.5q-33.5 34.5 -47.5 108.5l-99 509q-2 12 -2 17q0 25 16.5 38t45.5 13q60 0 70 -53l95 -535q4 -16 7 -21.5t8 -5.5q12 0 15 26l63 479q7 52 38.5 81t80.5 29t80.5 -29t38.5 -81l63 -479q3 -26 15 -26q5 0 8 5.5t7 21.5l95 535q10 53 70 53q29 0 45.5 -13
t16.5 -38q0 -5 -2 -17l-99 -509q-14 -74 -47.5 -108.5t-89.5 -34.5t-87 34t-41 106l-59 448q-2 15 -5 21t-9 6t-9 -6t-5 -21l-59 -448q-10 -72 -41 -106t-87 -34t-89.5 34.5zM317 805.5q-20 19.5 -20 48.5t19.5 49t51.5 20q31 0 50.5 -19.5t19.5 -49.5q0 -28 -19.5 -48
t-50.5 -20t-51 19.5zM553 805.5q-20 19.5 -20 48.5t19.5 49t51.5 20q31 0 50.5 -19.5t19.5 -49.5q0 -28 -19.5 -48t-50.5 -20t-51 19.5z" />
    <glyph glyph-name="Wgrave" unicode="&#x1e80;" horiz-adv-x="970" 
d="M194.5 24.5q-33.5 34.5 -47.5 108.5l-99 509q-2 12 -2 17q0 25 16.5 38t45.5 13q60 0 70 -53l95 -535q4 -16 7 -21.5t8 -5.5q12 0 15 26l63 479q7 52 38.5 81t80.5 29t80.5 -29t38.5 -81l63 -479q3 -26 15 -26q5 0 8 5.5t7 21.5l95 535q10 53 70 53q29 0 45.5 -13
t16.5 -38q0 -5 -2 -17l-99 -509q-14 -74 -47.5 -108.5t-89.5 -34.5t-87 34t-41 106l-59 448q-2 15 -5 21t-9 6t-9 -6t-5 -21l-59 -448q-10 -72 -41 -106t-87 -34t-89.5 34.5zM500 768q-14 0 -25.5 6.5t-18.5 17.5l-81 139q-9 14 -9 27q0 30 38 48q16 8 33 8q35 0 50 -40
l57 -146q3 -7 3 -16q0 -12 -6.5 -22.5t-17.5 -16.5q-9 -5 -23 -5z" />
    <glyph glyph-name="X" unicode="X" horiz-adv-x="714" 
d="M668 53q0 -16 -8 -30.5t-21 -22.5q-16 -9 -31 -9q-25 0 -51 30l-200 240l-200 -240q-25 -30 -51 -30q-14 0 -31 9q-13 8 -21 22.5t-8 30.5q0 18 11 32l222 269l-210 252q-16 19 -16 43q0 15 7 28.5t19 20.5q19 11 35 11q27 0 51 -29l192 -232l192 232q24 29 51 29
q18 0 35 -11q12 -7 19 -20.5t7 -28.5q0 -24 -16 -43l-210 -252l222 -269q11 -14 11 -32z" />
    <glyph glyph-name="Y" unicode="Y" horiz-adv-x="734" 
d="M670 694q18 -16 18 -44v-105q0 -133 -67 -216.5t-187 -101.5v-177q0 -27 -18.5 -43.5t-48.5 -16.5t-48 16t-18 44v177q-121 18 -188 101t-67 217v105q0 28 18 44t48 16t48.5 -16.5t18.5 -43.5v-108q0 -104 48.5 -159.5t139.5 -55.5t139.5 55.5t48.5 159.5v108
q0 27 18.5 43.5t48.5 16.5t48 -16z" />
    <glyph glyph-name="Yacute" unicode="&#xdd;" horiz-adv-x="734" 
d="M670 694q18 -16 18 -44v-105q0 -133 -67 -216.5t-187 -101.5v-177q0 -27 -18.5 -43.5t-48.5 -16.5t-48 16t-18 44v177q-121 18 -188 101t-67 217v105q0 28 18 44t48 16t48.5 -16.5t18.5 -43.5v-108q0 -104 48.5 -159.5t139.5 -55.5t139.5 55.5t48.5 159.5v108
q0 27 18.5 43.5t48.5 16.5t48 -16zM337.5 789.5q-6.5 10.5 -6.5 22.5q0 9 3 16l57 146q15 40 50 40q17 0 33 -8q38 -18 38 -48q0 -13 -9 -27l-81 -139q-7 -11 -18.5 -17.5t-25.5 -6.5t-23 5q-11 6 -17.5 16.5z" />
    <glyph glyph-name="Ycircumflex" unicode="&#x176;" horiz-adv-x="734" 
d="M670 694q18 -16 18 -44v-105q0 -133 -67 -216.5t-187 -101.5v-177q0 -27 -18.5 -43.5t-48.5 -16.5t-48 16t-18 44v177q-121 18 -188 101t-67 217v105q0 28 18 44t48 16t48.5 -16.5t18.5 -43.5v-108q0 -104 48.5 -159.5t139.5 -55.5t139.5 55.5t48.5 159.5v108
q0 27 18.5 43.5t48.5 16.5t48 -16zM196 814q0 19 15 37l105 126q21 24 51 24t51 -24l105 -126q15 -18 15 -37q0 -22 -21 -39q-17 -12 -33 -12q-24 0 -45 27l-72 100l-72 -100q-21 -27 -45 -27q-16 0 -33 12q-21 17 -21 39z" />
    <glyph glyph-name="Ydieresis" unicode="&#x178;" horiz-adv-x="734" 
d="M670 694q18 -16 18 -44v-105q0 -133 -67 -216.5t-187 -101.5v-177q0 -27 -18.5 -43.5t-48.5 -16.5t-48 16t-18 44v177q-121 18 -188 101t-67 217v105q0 28 18 44t48 16t48.5 -16.5t18.5 -43.5v-108q0 -104 48.5 -159.5t139.5 -55.5t139.5 55.5t48.5 159.5v108
q0 27 18.5 43.5t48.5 16.5t48 -16zM199 805.5q-20 19.5 -20 48.5t19.5 49t51.5 20q31 0 50.5 -19.5t19.5 -49.5q0 -28 -19.5 -48t-50.5 -20t-51 19.5zM435 805.5q-20 19.5 -20 48.5t19.5 49t51.5 20q31 0 50.5 -19.5t19.5 -49.5q0 -28 -19.5 -48t-50.5 -20t-51 19.5z" />
    <glyph glyph-name="uni1E8E" unicode="&#x1e8e;" horiz-adv-x="734" 
d="M670 694q18 -16 18 -44v-105q0 -133 -67 -216.5t-187 -101.5v-177q0 -27 -18.5 -43.5t-48.5 -16.5t-48 16t-18 44v177q-121 18 -188 101t-67 217v105q0 28 18 44t48 16t48.5 -16.5t18.5 -43.5v-108q0 -104 48.5 -159.5t139.5 -55.5t139.5 55.5t48.5 159.5v108
q0 27 18.5 43.5t48.5 16.5t48 -16zM309 798.5q-23 21.5 -23 52.5q0 32 23 53.5t58 21.5q34 0 57 -21.5t23 -53.5q0 -31 -23 -52.5t-57 -21.5q-35 0 -58 21.5z" />
    <glyph glyph-name="uni1EF4" unicode="&#x1ef4;" horiz-adv-x="734" 
d="M670 694q18 -16 18 -44v-105q0 -133 -67 -216.5t-187 -101.5v-177q0 -27 -18.5 -43.5t-48.5 -16.5t-48 16t-18 44v177q-121 18 -188 101t-67 217v105q0 28 18 44t48 16t48.5 -16.5t18.5 -43.5v-108q0 -104 48.5 -159.5t139.5 -55.5t139.5 55.5t48.5 159.5v108
q0 27 18.5 43.5t48.5 16.5t48 -16zM307.5 -192q-21.5 20 -21.5 54q0 35 21.5 55t59.5 20q37 0 58.5 -20t21.5 -55q0 -34 -21.5 -54t-58.5 -20q-38 0 -59.5 20z" />
    <glyph glyph-name="Ygrave" unicode="&#x1ef2;" horiz-adv-x="734" 
d="M670 694q18 -16 18 -44v-105q0 -133 -67 -216.5t-187 -101.5v-177q0 -27 -18.5 -43.5t-48.5 -16.5t-48 16t-18 44v177q-121 18 -188 101t-67 217v105q0 28 18 44t48 16t48.5 -16.5t18.5 -43.5v-108q0 -104 48.5 -159.5t139.5 -55.5t139.5 55.5t48.5 159.5v108
q0 27 18.5 43.5t48.5 16.5t48 -16zM382 768q-14 0 -25.5 6.5t-18.5 17.5l-81 139q-9 14 -9 27q0 30 38 48q16 8 33 8q35 0 50 -40l57 -146q3 -7 3 -16q0 -12 -6.5 -22.5t-17.5 -16.5q-9 -5 -23 -5z" />
    <glyph glyph-name="uni1EF6" unicode="&#x1ef6;" horiz-adv-x="734" 
d="M670 694q18 -16 18 -44v-105q0 -133 -67 -216.5t-187 -101.5v-177q0 -27 -18.5 -43.5t-48.5 -16.5t-48 16t-18 44v177q-121 18 -188 101t-67 217v105q0 28 18 44t48 16t48.5 -16.5t18.5 -43.5v-108q0 -104 48.5 -159.5t139.5 -55.5t139.5 55.5t48.5 159.5v108
q0 27 18.5 43.5t48.5 16.5t48 -16zM326.5 761.5q-15.5 9.5 -15.5 27.5v5q0 17 10.5 31t29.5 30q14 12 20.5 19.5t6.5 15.5q0 9 -6.5 15t-18.5 6q-10 0 -22 -6.5t-22 -17.5q-11 -12 -28 -12q-15 0 -29 10q-16 12 -16 28q0 10 8 21q19 24 52.5 40t78.5 16q61 0 91.5 -23
t30.5 -62q0 -20 -11.5 -35.5t-32.5 -34.5q-16 -14 -23 -22.5t-7 -17.5v-6q0 -18 -15.5 -27.5t-40.5 -9.5t-40.5 9.5z" />
    <glyph glyph-name="uni1EF8" unicode="&#x1ef8;" horiz-adv-x="734" 
d="M670 694q18 -16 18 -44v-105q0 -133 -67 -216.5t-187 -101.5v-177q0 -27 -18.5 -43.5t-48.5 -16.5t-48 16t-18 44v177q-121 18 -188 101t-67 217v105q0 28 18 44t48 16t48.5 -16.5t18.5 -43.5v-108q0 -104 48.5 -159.5t139.5 -55.5t139.5 55.5t48.5 159.5v108
q0 27 18.5 43.5t48.5 16.5t48 -16zM178.5 809q-7.5 9 -7.5 22t5 23q18 41 45 62.5t69 21.5q27 0 49 -9.5t50 -26.5q4 -2 14.5 -8.5t18.5 -9.5t15 -3q13 0 22 7t17 25q16 32 41 32q20 0 32.5 -10.5t12.5 -27.5q0 -13 -5 -23q-18 -41 -45 -62.5t-69 -21.5q-25 0 -45 8.5
t-45 24.5q-17 12 -30 18t-27 6q-13 0 -22 -7t-17 -25q-16 -32 -41 -32q-8 0 -17 3q-13 4 -20.5 13z" />
    <glyph glyph-name="Z" unicode="Z" horiz-adv-x="724" 
d="M83 31q-37 31 -37 82q0 38 15 66.5t58 60.5l393 297q13 10 18.5 18t5.5 19q0 23 -35 23h-366q-29 0 -49.5 13.5t-20.5 37.5q0 25 20 38.5t50 13.5h397q65 0 101.5 -29.5t36.5 -83.5q0 -41 -15 -68t-58 -59l-393 -297q-13 -10 -18.5 -18.5t-5.5 -20.5q0 -21 47 -21h381
q29 0 49.5 -13.5t20.5 -37.5q0 -25 -20 -38.5t-50 -13.5h-424q-64 0 -101 31z" />
    <glyph glyph-name="Zacute" unicode="&#x179;" horiz-adv-x="724" 
d="M83 31q-37 31 -37 82q0 38 15 66.5t58 60.5l393 297q13 10 18.5 18t5.5 19q0 23 -35 23h-366q-29 0 -49.5 13.5t-20.5 37.5q0 25 20 38.5t50 13.5h397q65 0 101.5 -29.5t36.5 -83.5q0 -41 -15 -68t-58 -59l-393 -297q-13 -10 -18.5 -18.5t-5.5 -20.5q0 -21 47 -21h381
q29 0 49.5 -13.5t20.5 -37.5q0 -25 -20 -38.5t-50 -13.5h-424q-64 0 -101 31zM346.5 789.5q-6.5 10.5 -6.5 22.5q0 9 3 16l57 146q15 40 50 40q17 0 33 -8q38 -18 38 -48q0 -13 -9 -27l-81 -139q-7 -11 -18.5 -17.5t-25.5 -6.5t-23 5q-11 6 -17.5 16.5z" />
    <glyph glyph-name="Zcaron" unicode="&#x17d;" horiz-adv-x="724" 
d="M83 31q-37 31 -37 82q0 38 15 66.5t58 60.5l393 297q13 10 18.5 18t5.5 19q0 23 -35 23h-366q-29 0 -49.5 13.5t-20.5 37.5q0 25 20 38.5t50 13.5h397q65 0 101.5 -29.5t36.5 -83.5q0 -41 -15 -68t-58 -59l-393 -297q-13 -10 -18.5 -18.5t-5.5 -20.5q0 -21 47 -21h381
q29 0 49.5 -13.5t20.5 -37.5q0 -25 -20 -38.5t-50 -13.5h-424q-64 0 -101 31zM325 787l-105 126q-15 18 -15 37q0 23 21 39q17 12 33 12q24 0 45 -27l72 -100l72 100q21 27 45 27q17 0 33 -12q21 -16 21 -39q0 -19 -15 -37l-105 -126q-21 -24 -51 -24t-51 24z" />
    <glyph glyph-name="Zdotaccent" unicode="&#x17b;" horiz-adv-x="724" 
d="M83 31q-37 31 -37 82q0 38 15 66.5t58 60.5l393 297q13 10 18.5 18t5.5 19q0 23 -35 23h-366q-29 0 -49.5 13.5t-20.5 37.5q0 25 20 38.5t50 13.5h397q65 0 101.5 -29.5t36.5 -83.5q0 -41 -15 -68t-58 -59l-393 -297q-13 -10 -18.5 -18.5t-5.5 -20.5q0 -21 47 -21h381
q29 0 49.5 -13.5t20.5 -37.5q0 -25 -20 -38.5t-50 -13.5h-424q-64 0 -101 31zM318 798.5q-23 21.5 -23 52.5q0 32 23 53.5t58 21.5q34 0 57 -21.5t23 -53.5q0 -31 -23 -52.5t-57 -21.5q-35 0 -58 21.5z" />
    <glyph glyph-name="uni1E92" unicode="&#x1e92;" horiz-adv-x="724" 
d="M83 31q-37 31 -37 82q0 38 15 66.5t58 60.5l393 297q13 10 18.5 18t5.5 19q0 23 -35 23h-366q-29 0 -49.5 13.5t-20.5 37.5q0 25 20 38.5t50 13.5h397q65 0 101.5 -29.5t36.5 -83.5q0 -41 -15 -68t-58 -59l-393 -297q-13 -10 -18.5 -18.5t-5.5 -20.5q0 -21 47 -21h381
q29 0 49.5 -13.5t20.5 -37.5q0 -25 -20 -38.5t-50 -13.5h-424q-64 0 -101 31zM316.5 -192q-21.5 20 -21.5 54q0 35 21.5 55t59.5 20q37 0 58.5 -20t21.5 -55q0 -34 -21.5 -54t-58.5 -20q-38 0 -59.5 20z" />
    <glyph glyph-name="a" unicode="a" horiz-adv-x="586" 
d="M136.5 11q-47.5 21 -74 58.5t-26.5 86.5q0 74 61.5 118t166.5 44q91 0 146 -39v24q0 47 -29 72t-84 25q-82 0 -141 -35q-25 -14 -43 -14q-22 0 -39 20q-11 14 -11 29q0 25 26 44q36 26 91 41t116 15q116 0 182.5 -52.5t66.5 -144.5v-257q0 -26 -17.5 -41t-47.5 -15
q-31 0 -48 14t-17 40v11q-57 -65 -169 -65q-62 0 -109.5 21zM375.5 101.5q35.5 19.5 35.5 54.5q0 33 -36 53t-96 20q-54 0 -83.5 -19t-29.5 -54t29 -54.5t82 -19.5q63 0 98.5 19.5z" />
    <glyph glyph-name="aacute" unicode="&#xe1;" horiz-adv-x="586" 
d="M136.5 11q-47.5 21 -74 58.5t-26.5 86.5q0 74 61.5 118t166.5 44q91 0 146 -39v24q0 47 -29 72t-84 25q-82 0 -141 -35q-25 -14 -43 -14q-22 0 -39 20q-11 14 -11 29q0 25 26 44q36 26 91 41t116 15q116 0 182.5 -52.5t66.5 -144.5v-257q0 -26 -17.5 -41t-47.5 -15
q-31 0 -48 14t-17 40v11q-57 -65 -169 -65q-62 0 -109.5 21zM375.5 101.5q35.5 19.5 35.5 54.5q0 33 -36 53t-96 20q-54 0 -83.5 -19t-29.5 -54t29 -54.5t82 -19.5q63 0 98.5 19.5zM277.5 579.5q-6.5 10.5 -6.5 22.5q0 9 3 16l57 146q15 40 50 40q17 0 33 -8q38 -18 38 -48
q0 -13 -9 -27l-81 -139q-7 -11 -18.5 -17.5t-25.5 -6.5t-23 5q-11 6 -17.5 16.5z" />
    <glyph glyph-name="abreve" unicode="&#x103;" horiz-adv-x="586" 
d="M136.5 11q-47.5 21 -74 58.5t-26.5 86.5q0 74 61.5 118t166.5 44q91 0 146 -39v24q0 47 -29 72t-84 25q-82 0 -141 -35q-25 -14 -43 -14q-22 0 -39 20q-11 14 -11 29q0 25 26 44q36 26 91 41t116 15q116 0 182.5 -52.5t66.5 -144.5v-257q0 -26 -17.5 -41t-47.5 -15
q-31 0 -48 14t-17 40v11q-57 -65 -169 -65q-62 0 -109.5 21zM375.5 101.5q35.5 19.5 35.5 54.5q0 33 -36 53t-96 20q-54 0 -83.5 -19t-29.5 -54t29 -54.5t82 -19.5q63 0 98.5 19.5zM166 602q-52 46 -52 124q0 28 16 43t45 15t45 -15t16 -43q0 -37 18.5 -57t52.5 -20t52.5 20
t18.5 57q0 28 16 43t45 15t45 -15t16 -43q0 -78 -52 -124t-141 -46t-141 46z" />
    <glyph glyph-name="uni1EAF" unicode="&#x1eaf;" horiz-adv-x="586" 
d="M136.5 11q-47.5 21 -74 58.5t-26.5 86.5q0 74 61.5 118t166.5 44q91 0 146 -39v24q0 47 -29 72t-84 25q-82 0 -141 -35q-25 -14 -43 -14q-22 0 -39 20q-11 14 -11 29q0 25 26 44q36 26 91 41t116 15q116 0 182.5 -52.5t66.5 -144.5v-257q0 -26 -17.5 -41t-47.5 -15
q-31 0 -48 14t-17 40v11q-57 -65 -169 -65q-62 0 -109.5 21zM375.5 101.5q35.5 19.5 35.5 54.5q0 33 -36 53t-96 20q-54 0 -83.5 -19t-29.5 -54t29 -54.5t82 -19.5q63 0 98.5 19.5zM262 780q0 13 6 23l64 108q8 14 20.5 21t25.5 7q18 0 34 -11q11 -8 17 -19t6 -23
q0 -16 -12 -31l-84 -97q-16 -18 -36 -18q-14 0 -26 9q-15 12 -15 31zM167.5 598.5q-54.5 42.5 -54.5 117.5q0 28 15.5 43t44.5 15t44.5 -15t15.5 -43q0 -36 18.5 -51.5t54.5 -15.5t54.5 15.5t18.5 51.5q0 28 15.5 43t44.5 15t44.5 -15t15.5 -43q0 -75 -54.5 -117.5
t-138.5 -42.5t-138.5 42.5z" />
    <glyph glyph-name="uni1EB7" unicode="&#x1eb7;" horiz-adv-x="586" 
d="M136.5 11q-47.5 21 -74 58.5t-26.5 86.5q0 74 61.5 118t166.5 44q91 0 146 -39v24q0 47 -29 72t-84 25q-82 0 -141 -35q-25 -14 -43 -14q-22 0 -39 20q-11 14 -11 29q0 25 26 44q36 26 91 41t116 15q116 0 182.5 -52.5t66.5 -144.5v-257q0 -26 -17.5 -41t-47.5 -15
q-31 0 -48 14t-17 40v11q-57 -65 -169 -65q-62 0 -109.5 21zM375.5 101.5q35.5 19.5 35.5 54.5q0 33 -36 53t-96 20q-54 0 -83.5 -19t-29.5 -54t29 -54.5t82 -19.5q63 0 98.5 19.5zM247.5 -192q-21.5 20 -21.5 54q0 35 21.5 55t59.5 20q37 0 58.5 -20t21.5 -55
q0 -34 -21.5 -54t-58.5 -20q-38 0 -59.5 20zM166 602q-52 46 -52 124q0 28 16 43t45 15t45 -15t16 -43q0 -37 18.5 -57t52.5 -20t52.5 20t18.5 57q0 28 16 43t45 15t45 -15t16 -43q0 -78 -52 -124t-141 -46t-141 46z" />
    <glyph glyph-name="uni1EB1" unicode="&#x1eb1;" horiz-adv-x="586" 
d="M136.5 11q-47.5 21 -74 58.5t-26.5 86.5q0 74 61.5 118t166.5 44q91 0 146 -39v24q0 47 -29 72t-84 25q-82 0 -141 -35q-25 -14 -43 -14q-22 0 -39 20q-11 14 -11 29q0 25 26 44q36 26 91 41t116 15q116 0 182.5 -52.5t66.5 -144.5v-257q0 -26 -17.5 -41t-47.5 -15
q-31 0 -48 14t-17 40v11q-57 -65 -169 -65q-62 0 -109.5 21zM375.5 101.5q35.5 19.5 35.5 54.5q0 33 -36 53t-96 20q-54 0 -83.5 -19t-29.5 -54t29 -54.5t82 -19.5q63 0 98.5 19.5zM310 740q-20 0 -36 18l-84 97q-12 15 -12 31q0 12 6 23t17 19q16 11 34 11q13 0 25.5 -7
t20.5 -21l64 -108q6 -10 6 -23q0 -19 -15 -31q-12 -9 -26 -9zM168.5 598.5q-54.5 42.5 -54.5 117.5q0 28 15.5 43t44.5 15t44.5 -15t15.5 -43q0 -36 18.5 -51.5t54.5 -15.5t54.5 15.5t18.5 51.5q0 28 15.5 43t44.5 15t44.5 -15t15.5 -43q0 -75 -54.5 -117.5t-138.5 -42.5
t-138.5 42.5z" />
    <glyph glyph-name="uni1EB3" unicode="&#x1eb3;" horiz-adv-x="586" 
d="M136.5 11q-47.5 21 -74 58.5t-26.5 86.5q0 74 61.5 118t166.5 44q91 0 146 -39v24q0 47 -29 72t-84 25q-82 0 -141 -35q-25 -14 -43 -14q-22 0 -39 20q-11 14 -11 29q0 25 26 44q36 26 91 41t116 15q116 0 182.5 -52.5t66.5 -144.5v-257q0 -26 -17.5 -41t-47.5 -15
q-31 0 -48 14t-17 40v11q-57 -65 -169 -65q-62 0 -109.5 21zM375.5 101.5q35.5 19.5 35.5 54.5q0 33 -36 53t-96 20q-54 0 -83.5 -19t-29.5 -54t29 -54.5t82 -19.5q63 0 98.5 19.5zM272.5 737.5q-13.5 8.5 -13.5 23.5v4q0 15 8.5 26t25.5 27q12 10 18 17.5t6 14.5
q0 8 -5.5 13t-15.5 5q-17 0 -38 -21q-12 -12 -27 -12q-12 0 -24 9q-14 11 -14 25q0 9 7 19q15 21 45.5 35t69.5 14q53 0 79.5 -20t26.5 -53q0 -18 -10 -31.5t-29 -30.5q-13 -11 -19.5 -19t-6.5 -17v-5q0 -15 -13 -23.5t-35 -8.5t-35.5 8.5zM168.5 598.5
q-54.5 42.5 -54.5 117.5q0 28 15.5 43t44.5 15t44.5 -15t15.5 -43q0 -36 18.5 -51.5t54.5 -15.5t54.5 15.5t18.5 51.5q0 28 15.5 43t44.5 15t44.5 -15t15.5 -43q0 -75 -54.5 -117.5t-138.5 -42.5t-138.5 42.5z" />
    <glyph glyph-name="uni1EB5" unicode="&#x1eb5;" horiz-adv-x="586" 
d="M136.5 11q-47.5 21 -74 58.5t-26.5 86.5q0 74 61.5 118t166.5 44q91 0 146 -39v24q0 47 -29 72t-84 25q-82 0 -141 -35q-25 -14 -43 -14q-22 0 -39 20q-11 14 -11 29q0 25 26 44q36 26 91 41t116 15q116 0 182.5 -52.5t66.5 -144.5v-257q0 -26 -17.5 -41t-47.5 -15
q-31 0 -48 14t-17 40v11q-57 -65 -169 -65q-62 0 -109.5 21zM375.5 101.5q35.5 19.5 35.5 54.5q0 33 -36 53t-96 20q-54 0 -83.5 -19t-29.5 -54t29 -54.5t82 -19.5q63 0 98.5 19.5zM131.5 808.5q-11.5 9.5 -11.5 25.5q0 9 5 22q16 38 42 58.5t66 20.5q26 0 46 -8.5t48 -25.5
q18 -11 27.5 -15.5t18.5 -4.5q13 0 21 7t16 23q14 30 39 30q19 0 30.5 -10t11.5 -26q0 -9 -5 -21q-17 -39 -42.5 -59.5t-65.5 -20.5q-24 0 -42.5 8t-41.5 23q-19 12 -30.5 17.5t-24.5 5.5t-21 -6.5t-16 -23.5q-15 -29 -39 -29q-20 0 -31.5 9.5zM168.5 598.5
q-54.5 42.5 -54.5 117.5q0 28 15.5 43t44.5 15t44.5 -15t15.5 -43q0 -36 18.5 -51.5t54.5 -15.5t54.5 15.5t18.5 51.5q0 28 15.5 43t44.5 15t44.5 -15t15.5 -43q0 -75 -54.5 -117.5t-138.5 -42.5t-138.5 42.5z" />
    <glyph glyph-name="uni01CE" unicode="&#x1ce;" horiz-adv-x="586" 
d="M136.5 11q-47.5 21 -74 58.5t-26.5 86.5q0 74 61.5 118t166.5 44q91 0 146 -39v24q0 47 -29 72t-84 25q-82 0 -141 -35q-25 -14 -43 -14q-22 0 -39 20q-11 14 -11 29q0 25 26 44q36 26 91 41t116 15q116 0 182.5 -52.5t66.5 -144.5v-257q0 -26 -17.5 -41t-47.5 -15
q-31 0 -48 14t-17 40v11q-57 -65 -169 -65q-62 0 -109.5 21zM375.5 101.5q35.5 19.5 35.5 54.5q0 33 -36 53t-96 20q-54 0 -83.5 -19t-29.5 -54t29 -54.5t82 -19.5q63 0 98.5 19.5zM256 577l-105 126q-15 18 -15 37q0 23 21 39q17 12 33 12q24 0 45 -27l72 -100l72 100
q21 27 45 27q17 0 33 -12q21 -16 21 -39q0 -19 -15 -37l-105 -126q-21 -24 -51 -24t-51 24z" />
    <glyph glyph-name="acircumflex" unicode="&#xe2;" horiz-adv-x="586" 
d="M136.5 11q-47.5 21 -74 58.5t-26.5 86.5q0 74 61.5 118t166.5 44q91 0 146 -39v24q0 47 -29 72t-84 25q-82 0 -141 -35q-25 -14 -43 -14q-22 0 -39 20q-11 14 -11 29q0 25 26 44q36 26 91 41t116 15q116 0 182.5 -52.5t66.5 -144.5v-257q0 -26 -17.5 -41t-47.5 -15
q-31 0 -48 14t-17 40v11q-57 -65 -169 -65q-62 0 -109.5 21zM375.5 101.5q35.5 19.5 35.5 54.5q0 33 -36 53t-96 20q-54 0 -83.5 -19t-29.5 -54t29 -54.5t82 -19.5q63 0 98.5 19.5zM136 604q0 19 15 37l105 126q21 24 51 24t51 -24l105 -126q15 -18 15 -37q0 -22 -21 -39
q-17 -12 -33 -12q-24 0 -45 27l-72 100l-72 -100q-21 -27 -45 -27q-16 0 -33 12q-21 17 -21 39z" />
    <glyph glyph-name="uni1EA5" unicode="&#x1ea5;" horiz-adv-x="586" 
d="M136.5 11q-47.5 21 -74 58.5t-26.5 86.5q0 74 61.5 118t166.5 44q91 0 146 -39v24q0 47 -29 72t-84 25q-82 0 -141 -35q-25 -14 -43 -14q-22 0 -39 20q-11 14 -11 29q0 25 26 44q36 26 91 41t116 15q116 0 182.5 -52.5t66.5 -144.5v-257q0 -26 -17.5 -41t-47.5 -15
q-31 0 -48 14t-17 40v11q-57 -65 -169 -65q-62 0 -109.5 21zM375.5 101.5q35.5 19.5 35.5 54.5q0 33 -36 53t-96 20q-54 0 -83.5 -19t-29.5 -54t29 -54.5t82 -19.5q63 0 98.5 19.5zM396 769q0 13 6 23l64 108q8 14 20.5 21t25.5 7q18 0 34 -11q11 -8 17 -19t6 -23
q0 -16 -12 -31l-84 -97q-16 -18 -36 -18q-14 0 -26 9q-15 12 -15 31zM135 604q0 18 16 36l105 116q21 24 51 24t51 -24l105 -116q16 -18 16 -36q0 -23 -22 -40q-15 -12 -32 -12q-25 0 -46 27l-72 90l-72 -90q-21 -27 -46 -27q-17 0 -32 12q-22 17 -22 40z" />
    <glyph glyph-name="uni1EAD" unicode="&#x1ead;" horiz-adv-x="586" 
d="M136.5 11q-47.5 21 -74 58.5t-26.5 86.5q0 74 61.5 118t166.5 44q91 0 146 -39v24q0 47 -29 72t-84 25q-82 0 -141 -35q-25 -14 -43 -14q-22 0 -39 20q-11 14 -11 29q0 25 26 44q36 26 91 41t116 15q116 0 182.5 -52.5t66.5 -144.5v-257q0 -26 -17.5 -41t-47.5 -15
q-31 0 -48 14t-17 40v11q-57 -65 -169 -65q-62 0 -109.5 21zM375.5 101.5q35.5 19.5 35.5 54.5q0 33 -36 53t-96 20q-54 0 -83.5 -19t-29.5 -54t29 -54.5t82 -19.5q63 0 98.5 19.5zM247.5 -192q-21.5 20 -21.5 54q0 35 21.5 55t59.5 20q37 0 58.5 -20t21.5 -55
q0 -34 -21.5 -54t-58.5 -20q-38 0 -59.5 20zM136 604q0 19 15 37l105 126q21 24 51 24t51 -24l105 -126q15 -18 15 -37q0 -22 -21 -39q-17 -12 -33 -12q-24 0 -45 27l-72 100l-72 -100q-21 -27 -45 -27q-16 0 -33 12q-21 17 -21 39z" />
    <glyph glyph-name="uni1EA7" unicode="&#x1ea7;" horiz-adv-x="586" 
d="M136.5 11q-47.5 21 -74 58.5t-26.5 86.5q0 74 61.5 118t166.5 44q91 0 146 -39v24q0 47 -29 72t-84 25q-82 0 -141 -35q-25 -14 -43 -14q-22 0 -39 20q-11 14 -11 29q0 25 26 44q36 26 91 41t116 15q116 0 182.5 -52.5t66.5 -144.5v-257q0 -26 -17.5 -41t-47.5 -15
q-31 0 -48 14t-17 40v11q-57 -65 -169 -65q-62 0 -109.5 21zM375.5 101.5q35.5 19.5 35.5 54.5q0 33 -36 53t-96 20q-54 0 -83.5 -19t-29.5 -54t29 -54.5t82 -19.5q63 0 98.5 19.5zM458 729q-20 0 -36 18l-84 97q-12 15 -12 31q0 12 6 23t17 19q16 11 34 11q13 0 25.5 -7
t20.5 -21l64 -108q6 -10 6 -23q0 -19 -15 -31q-12 -9 -26 -9zM135 604q0 18 16 36l105 116q21 24 51 24t51 -24l105 -116q16 -18 16 -36q0 -23 -22 -40q-15 -12 -32 -12q-25 0 -46 27l-72 90l-72 -90q-21 -27 -46 -27q-17 0 -32 12q-22 17 -22 40z" />
    <glyph glyph-name="uni1EA9" unicode="&#x1ea9;" horiz-adv-x="586" 
d="M136.5 11q-47.5 21 -74 58.5t-26.5 86.5q0 74 61.5 118t166.5 44q91 0 146 -39v24q0 47 -29 72t-84 25q-82 0 -141 -35q-25 -14 -43 -14q-22 0 -39 20q-11 14 -11 29q0 25 26 44q36 26 91 41t116 15q116 0 182.5 -52.5t66.5 -144.5v-257q0 -26 -17.5 -41t-47.5 -15
q-31 0 -48 14t-17 40v11q-57 -65 -169 -65q-62 0 -109.5 21zM375.5 101.5q35.5 19.5 35.5 54.5q0 33 -36 53t-96 20q-54 0 -83.5 -19t-29.5 -54t29 -54.5t82 -19.5q63 0 98.5 19.5zM411.5 726.5q-13.5 8.5 -13.5 23.5v4q0 15 8.5 26t25.5 27q12 10 18 17.5t6 14.5
q0 8 -5.5 13t-15.5 5q-17 0 -38 -21q-12 -12 -27 -12q-12 0 -24 9q-14 11 -14 25q0 9 7 19q15 21 45.5 35t69.5 14q53 0 79.5 -20t26.5 -53q0 -18 -10 -31.5t-29 -30.5q-13 -11 -19.5 -19t-6.5 -17v-5q0 -15 -13 -23.5t-35 -8.5t-35.5 8.5zM135 604q0 18 16 36l105 116
q21 24 51 24t51 -24l105 -116q16 -18 16 -36q0 -23 -22 -40q-15 -12 -32 -12q-25 0 -46 27l-72 90l-72 -90q-21 -27 -46 -27q-17 0 -32 12q-22 17 -22 40z" />
    <glyph glyph-name="uni1EAB" unicode="&#x1eab;" horiz-adv-x="586" 
d="M136.5 11q-47.5 21 -74 58.5t-26.5 86.5q0 74 61.5 118t166.5 44q91 0 146 -39v24q0 47 -29 72t-84 25q-82 0 -141 -35q-25 -14 -43 -14q-22 0 -39 20q-11 14 -11 29q0 25 26 44q36 26 91 41t116 15q116 0 182.5 -52.5t66.5 -144.5v-257q0 -26 -17.5 -41t-47.5 -15
q-31 0 -48 14t-17 40v11q-57 -65 -169 -65q-62 0 -109.5 21zM375.5 101.5q35.5 19.5 35.5 54.5q0 33 -36 53t-96 20q-54 0 -83.5 -19t-29.5 -54t29 -54.5t82 -19.5q63 0 98.5 19.5zM138.5 797.5q-11.5 9.5 -11.5 25.5q0 9 5 22q16 38 42 58.5t66 20.5q26 0 46 -8.5t48 -25.5
q18 -11 27.5 -15.5t18.5 -4.5q13 0 21 7t16 23q14 30 39 30q19 0 30.5 -10t11.5 -26q0 -9 -5 -21q-17 -39 -42.5 -59.5t-65.5 -20.5q-24 0 -42.5 8t-41.5 23q-19 12 -30.5 17.5t-24.5 5.5t-21 -6.5t-16 -23.5q-15 -29 -39 -29q-20 0 -31.5 9.5zM135 604q0 18 16 36l105 116
q21 24 51 24t51 -24l105 -116q16 -18 16 -36q0 -23 -22 -40q-15 -12 -32 -12q-25 0 -46 27l-72 90l-72 -90q-21 -27 -46 -27q-17 0 -32 12q-22 17 -22 40z" />
    <glyph glyph-name="adieresis" unicode="&#xe4;" horiz-adv-x="586" 
d="M136.5 11q-47.5 21 -74 58.5t-26.5 86.5q0 74 61.5 118t166.5 44q91 0 146 -39v24q0 47 -29 72t-84 25q-82 0 -141 -35q-25 -14 -43 -14q-22 0 -39 20q-11 14 -11 29q0 25 26 44q36 26 91 41t116 15q116 0 182.5 -52.5t66.5 -144.5v-257q0 -26 -17.5 -41t-47.5 -15
q-31 0 -48 14t-17 40v11q-57 -65 -169 -65q-62 0 -109.5 21zM375.5 101.5q35.5 19.5 35.5 54.5q0 33 -36 53t-96 20q-54 0 -83.5 -19t-29.5 -54t29 -54.5t82 -19.5q63 0 98.5 19.5zM139 595.5q-20 19.5 -20 48.5t19.5 49t51.5 20q31 0 50.5 -19.5t19.5 -49.5
q0 -28 -19.5 -48t-50.5 -20t-51 19.5zM375 595.5q-20 19.5 -20 48.5t19.5 49t51.5 20q31 0 50.5 -19.5t19.5 -49.5q0 -28 -19.5 -48t-50.5 -20t-51 19.5z" />
    <glyph glyph-name="uni1EA1" unicode="&#x1ea1;" horiz-adv-x="586" 
d="M136.5 11q-47.5 21 -74 58.5t-26.5 86.5q0 74 61.5 118t166.5 44q91 0 146 -39v24q0 47 -29 72t-84 25q-82 0 -141 -35q-25 -14 -43 -14q-22 0 -39 20q-11 14 -11 29q0 25 26 44q36 26 91 41t116 15q116 0 182.5 -52.5t66.5 -144.5v-257q0 -26 -17.5 -41t-47.5 -15
q-31 0 -48 14t-17 40v11q-57 -65 -169 -65q-62 0 -109.5 21zM375.5 101.5q35.5 19.5 35.5 54.5q0 33 -36 53t-96 20q-54 0 -83.5 -19t-29.5 -54t29 -54.5t82 -19.5q63 0 98.5 19.5zM247.5 -192q-21.5 20 -21.5 54q0 35 21.5 55t59.5 20q37 0 58.5 -20t21.5 -55
q0 -34 -21.5 -54t-58.5 -20q-38 0 -59.5 20z" />
    <glyph glyph-name="agrave" unicode="&#xe0;" horiz-adv-x="586" 
d="M136.5 11q-47.5 21 -74 58.5t-26.5 86.5q0 74 61.5 118t166.5 44q91 0 146 -39v24q0 47 -29 72t-84 25q-82 0 -141 -35q-25 -14 -43 -14q-22 0 -39 20q-11 14 -11 29q0 25 26 44q36 26 91 41t116 15q116 0 182.5 -52.5t66.5 -144.5v-257q0 -26 -17.5 -41t-47.5 -15
q-31 0 -48 14t-17 40v11q-57 -65 -169 -65q-62 0 -109.5 21zM375.5 101.5q35.5 19.5 35.5 54.5q0 33 -36 53t-96 20q-54 0 -83.5 -19t-29.5 -54t29 -54.5t82 -19.5q63 0 98.5 19.5zM322 558q-14 0 -25.5 6.5t-18.5 17.5l-81 139q-9 14 -9 27q0 30 38 48q16 8 33 8
q35 0 50 -40l57 -146q3 -7 3 -16q0 -12 -6.5 -22.5t-17.5 -16.5q-9 -5 -23 -5z" />
    <glyph glyph-name="uni1EA3" unicode="&#x1ea3;" horiz-adv-x="586" 
d="M136.5 11q-47.5 21 -74 58.5t-26.5 86.5q0 74 61.5 118t166.5 44q91 0 146 -39v24q0 47 -29 72t-84 25q-82 0 -141 -35q-25 -14 -43 -14q-22 0 -39 20q-11 14 -11 29q0 25 26 44q36 26 91 41t116 15q116 0 182.5 -52.5t66.5 -144.5v-257q0 -26 -17.5 -41t-47.5 -15
q-31 0 -48 14t-17 40v11q-57 -65 -169 -65q-62 0 -109.5 21zM375.5 101.5q35.5 19.5 35.5 54.5q0 33 -36 53t-96 20q-54 0 -83.5 -19t-29.5 -54t29 -54.5t82 -19.5q63 0 98.5 19.5zM266.5 551.5q-15.5 9.5 -15.5 27.5v5q0 17 10.5 31t29.5 30q14 12 20.5 19.5t6.5 15.5
q0 9 -6.5 15t-18.5 6q-10 0 -22 -6.5t-22 -17.5q-11 -12 -28 -12q-15 0 -29 10q-16 12 -16 28q0 10 8 21q19 24 52.5 40t78.5 16q61 0 91.5 -23t30.5 -62q0 -20 -11.5 -35.5t-32.5 -34.5q-16 -14 -23 -22.5t-7 -17.5v-6q0 -18 -15.5 -27.5t-40.5 -9.5t-40.5 9.5z" />
    <glyph glyph-name="uni0251" unicode="&#x251;" horiz-adv-x="716" 
d="M117.5 56.5q-77.5 66.5 -77.5 184.5q0 122 78 190.5t218 68.5q56 0 104 -18t97 -57q2 16 6 28q8 23 25 35.5t39 12.5q6 0 18 -2q25 -5 38 -18t13 -31q0 -11 -4 -22q-17 -53 -17 -92v-191q0 -17 3.5 -35.5t13.5 -51.5q3 -9 3 -17q0 -22 -19.5 -36.5t-52.5 -14.5
q-44 0 -59 44q-5 12 -5 29q-44 -38 -93.5 -55.5t-111.5 -17.5q-139 0 -216.5 66.5zM480 130q43 36 43 115q0 71 -47.5 111t-131.5 40q-81 0 -126.5 -41t-45.5 -114q0 -69 45 -108t125 -39q95 0 138 36z" />
    <glyph glyph-name="amacron" unicode="&#x101;" horiz-adv-x="586" 
d="M136.5 11q-47.5 21 -74 58.5t-26.5 86.5q0 74 61.5 118t166.5 44q91 0 146 -39v24q0 47 -29 72t-84 25q-82 0 -141 -35q-25 -14 -43 -14q-22 0 -39 20q-11 14 -11 29q0 25 26 44q36 26 91 41t116 15q116 0 182.5 -52.5t66.5 -144.5v-257q0 -26 -17.5 -41t-47.5 -15
q-31 0 -48 14t-17 40v11q-57 -65 -169 -65q-62 0 -109.5 21zM375.5 101.5q35.5 19.5 35.5 54.5q0 33 -36 53t-96 20q-54 0 -83.5 -19t-29.5 -54t29 -54.5t82 -19.5q63 0 98.5 19.5zM124 604q0 22 12.5 31.5t39.5 9.5h256q27 0 39.5 -9.5t12.5 -31.5q0 -40 -52 -40h-256
q-52 0 -52 40z" />
    <glyph glyph-name="aogonek" unicode="&#x105;" horiz-adv-x="586" 
d="M590 -140q0 -14 -14 -28q-40 -40 -104 -40q-57 0 -93.5 24t-36.5 74q0 37 18 68.5t58 66.5q-3 9 -3 19v11q-57 -65 -169 -65q-62 0 -109.5 21t-74 58.5t-26.5 86.5q0 74 61.5 118t166.5 44q91 0 146 -39v24q0 47 -29 72t-84 25q-82 0 -141 -35q-25 -14 -43 -14
q-22 0 -39 20q-11 14 -11 29q0 25 26 44q36 26 91 41t116 15q116 0 182.5 -52.5t66.5 -144.5v-257q0 -27 -18 -42l-8 -7l-20 -17q-30 -25 -41 -39.5t-11 -36.5q0 -16 11.5 -24t25.5 -8q26 0 43 15q12 11 26 11q13 0 24 -11q13 -13 13 -27zM375.5 101.5q35.5 19.5 35.5 54.5
q0 33 -36 53t-96 20q-54 0 -83.5 -19t-29.5 -54t29 -54.5t82 -19.5q63 0 98.5 19.5z" />
    <glyph glyph-name="aring" unicode="&#xe5;" horiz-adv-x="586" 
d="M136.5 11q-47.5 21 -74 58.5t-26.5 86.5q0 74 61.5 118t166.5 44q91 0 146 -39v24q0 47 -29 72t-84 25q-82 0 -141 -35q-25 -14 -43 -14q-22 0 -39 20q-11 14 -11 29q0 25 26 44q36 26 91 41t116 15q116 0 182.5 -52.5t66.5 -144.5v-257q0 -26 -17.5 -41t-47.5 -15
q-31 0 -48 14t-17 40v11q-57 -65 -169 -65q-62 0 -109.5 21zM375.5 101.5q35.5 19.5 35.5 54.5q0 33 -36 53t-96 20q-54 0 -83.5 -19t-29.5 -54t29 -54.5t82 -19.5q63 0 98.5 19.5zM216.5 574.5q-34.5 30.5 -34.5 79.5t34.5 79.5t91.5 30.5t90.5 -30.5t33.5 -79.5
t-33.5 -79.5t-90.5 -30.5t-91.5 30.5zM340 621.5q12 11.5 12 32.5t-12 33t-33 12t-33 -12t-12 -33t12 -32.5t33 -11.5t33 11.5z" />
    <glyph glyph-name="aringacute" unicode="&#x1fb;" horiz-adv-x="586" 
d="M267.5 807q-6.5 9 -6.5 19q0 6 3 12l57 117q15 32 51 32q16 0 32 -6q38 -15 38 -39q0 -10 -9 -21l-81 -111q-7 -9 -19 -14.5t-26 -5.5q-13 0 -22 4q-11 4 -17.5 13zM216.5 574.5q-34.5 30.5 -34.5 79.5t34.5 79.5t91.5 30.5t90.5 -30.5t33.5 -79.5t-33.5 -79.5
t-90.5 -30.5t-91.5 30.5zM340 621.5q12 11.5 12 32.5t-12 33t-33 12t-33 -12t-12 -33t12 -32.5t33 -11.5t33 11.5zM136.5 11q-47.5 21 -74 58.5t-26.5 86.5q0 74 61.5 118t166.5 44q91 0 146 -39v24q0 47 -29 72t-84 25q-82 0 -141 -35q-25 -14 -43 -14q-22 0 -39 20
q-11 14 -11 29q0 25 26 44q36 26 91 41t116 15q116 0 182.5 -52.5t66.5 -144.5v-257q0 -26 -17.5 -41t-47.5 -15q-31 0 -48 14t-17 40v11q-57 -65 -169 -65q-62 0 -109.5 21zM375.5 101.5q35.5 19.5 35.5 54.5q0 33 -36 53t-96 20q-54 0 -83.5 -19t-29.5 -54t29 -54.5
t82 -19.5q63 0 98.5 19.5z" />
    <glyph glyph-name="atilde" unicode="&#xe3;" horiz-adv-x="586" 
d="M136.5 11q-47.5 21 -74 58.5t-26.5 86.5q0 74 61.5 118t166.5 44q91 0 146 -39v24q0 47 -29 72t-84 25q-82 0 -141 -35q-25 -14 -43 -14q-22 0 -39 20q-11 14 -11 29q0 25 26 44q36 26 91 41t116 15q116 0 182.5 -52.5t66.5 -144.5v-257q0 -26 -17.5 -41t-47.5 -15
q-31 0 -48 14t-17 40v11q-57 -65 -169 -65q-62 0 -109.5 21zM375.5 101.5q35.5 19.5 35.5 54.5q0 33 -36 53t-96 20q-54 0 -83.5 -19t-29.5 -54t29 -54.5t82 -19.5q63 0 98.5 19.5zM118.5 599q-7.5 9 -7.5 22t5 23q18 41 45 62.5t69 21.5q27 0 49 -9.5t50 -26.5
q4 -2 14.5 -8.5t18.5 -9.5t15 -3q13 0 22 7t17 25q16 32 41 32q20 0 32.5 -10.5t12.5 -27.5q0 -13 -5 -23q-18 -41 -45 -62.5t-69 -21.5q-25 0 -45 8.5t-45 24.5q-17 12 -30 18t-27 6q-13 0 -22 -7t-17 -25q-16 -32 -41 -32q-8 0 -17 3q-13 4 -20.5 13z" />
    <glyph glyph-name="ae" unicode="&#xe6;" horiz-adv-x="1008" 
d="M143.5 11.5q-50.5 21.5 -79 60.5t-28.5 88t29.5 87t82 59t120.5 21q48 0 89 -10t67 -29v15q0 43 -33.5 69t-88.5 26q-81 0 -142 -38q-25 -17 -46 -17q-24 0 -41 20q-13 14 -13 31q0 22 26 43q36 29 93.5 46t120.5 17q57 0 106.5 -21t85.5 -61q35 38 89 60t114 22
q82 0 144.5 -24.5t97.5 -69t35 -102.5q0 -49 -30.5 -75t-86.5 -26h-312q0 -50 44 -80t118 -30q81 0 142 40q29 20 50 20q18 0 34 -16q17 -17 17 -38q0 -24 -20 -38q-44 -34 -101.5 -52t-121.5 -18t-122 21.5t-91 57.5q-40 -41 -97 -60.5t-136 -19.5q-65 0 -115.5 21.5z
M813 296q17 0 24 6.5t7 21.5q0 35 -39 54.5t-110 19.5q-68 0 -109 -28t-41 -74h268zM386.5 103q38.5 21 38.5 57t-38 56.5t-104 20.5q-53 0 -85 -21t-32 -56t31.5 -56.5t83.5 -21.5q67 0 105.5 21z" />
    <glyph glyph-name="aeacute" unicode="&#x1fd;" horiz-adv-x="1008" 
d="M143.5 11.5q-50.5 21.5 -79 60.5t-28.5 88t29.5 87t82 59t120.5 21q48 0 89 -10t67 -29v15q0 43 -33.5 69t-88.5 26q-81 0 -142 -38q-25 -17 -46 -17q-24 0 -41 20q-13 14 -13 31q0 22 26 43q36 29 93.5 46t120.5 17q57 0 106.5 -21t85.5 -61q35 38 89 60t114 22
q82 0 144.5 -24.5t97.5 -69t35 -102.5q0 -49 -30.5 -75t-86.5 -26h-312q0 -50 44 -80t118 -30q81 0 142 40q29 20 50 20q18 0 34 -16q17 -17 17 -38q0 -24 -20 -38q-44 -34 -101.5 -52t-121.5 -18t-122 21.5t-91 57.5q-40 -41 -97 -60.5t-136 -19.5q-65 0 -115.5 21.5z
M813 296q17 0 24 6.5t7 21.5q0 35 -39 54.5t-110 19.5q-68 0 -109 -28t-41 -74h268zM386.5 103q38.5 21 38.5 57t-38 56.5t-104 20.5q-53 0 -85 -21t-32 -56t31.5 -56.5t83.5 -21.5q67 0 105.5 21zM462.5 579.5q-6.5 10.5 -6.5 22.5q0 9 3 16l57 146q15 40 50 40q17 0 33 -8
q38 -18 38 -48q0 -13 -9 -27l-81 -139q-7 -11 -18.5 -17.5t-25.5 -6.5t-23 5q-11 6 -17.5 16.5z" />
    <glyph glyph-name="b" unicode="b" horiz-adv-x="666" 
d="M63 6q-17 16 -17 44v649q0 28 17 44t48 16q30 0 48 -16t18 -44l1 -277q35 38 84 58t104 20q124 0 194 -67.5t70 -187.5t-70.5 -187.5t-196.5 -67.5q-57 0 -100 18.5t-86 61.5v-20q0 -28 -18 -44t-48 -16q-31 0 -48 16zM457 134q41 40 41 111t-41 111t-114 40
q-78 0 -122 -40t-44 -111t44 -111t122 -40q73 0 114 40z" />
    <glyph glyph-name="c" unicode="c" horiz-adv-x="601" 
d="M110 57.5q-74 67.5 -74 188.5t74 187.5t208 66.5q71 0 128.5 -23.5t90.5 -66.5q12 -15 12 -32q0 -26 -27 -46q-12 -9 -30 -9q-14 0 -29 6.5t-26 18.5q-20 23 -51.5 35.5t-67.5 12.5q-71 0 -110.5 -39.5t-39.5 -110.5q0 -73 39.5 -112.5t110.5 -39.5q79 0 135 53
q28 28 55 28q18 0 33 -12q24 -19 24 -46q0 -17 -14 -33q-46 -49 -102.5 -71.5t-130.5 -22.5q-134 0 -208 67.5z" />
    <glyph glyph-name="cacute" unicode="&#x107;" horiz-adv-x="601" 
d="M110 57.5q-74 67.5 -74 188.5t74 187.5t208 66.5q71 0 128.5 -23.5t90.5 -66.5q12 -15 12 -32q0 -26 -27 -46q-12 -9 -30 -9q-14 0 -29 6.5t-26 18.5q-20 23 -51.5 35.5t-67.5 12.5q-71 0 -110.5 -39.5t-39.5 -110.5q0 -73 39.5 -112.5t110.5 -39.5q79 0 135 53
q28 28 55 28q18 0 33 -12q24 -19 24 -46q0 -17 -14 -33q-46 -49 -102.5 -71.5t-130.5 -22.5q-134 0 -208 67.5zM297.5 579.5q-6.5 10.5 -6.5 22.5q0 9 3 16l57 146q15 40 50 40q17 0 33 -8q38 -18 38 -48q0 -13 -9 -27l-81 -139q-7 -11 -18.5 -17.5t-25.5 -6.5t-23 5
q-11 6 -17.5 16.5z" />
    <glyph glyph-name="ccaron" unicode="&#x10d;" horiz-adv-x="601" 
d="M110 57.5q-74 67.5 -74 188.5t74 187.5t208 66.5q71 0 128.5 -23.5t90.5 -66.5q12 -15 12 -32q0 -26 -27 -46q-12 -9 -30 -9q-14 0 -29 6.5t-26 18.5q-20 23 -51.5 35.5t-67.5 12.5q-71 0 -110.5 -39.5t-39.5 -110.5q0 -73 39.5 -112.5t110.5 -39.5q79 0 135 53
q28 28 55 28q18 0 33 -12q24 -19 24 -46q0 -17 -14 -33q-46 -49 -102.5 -71.5t-130.5 -22.5q-134 0 -208 67.5zM276 577l-105 126q-15 18 -15 37q0 23 21 39q17 12 33 12q24 0 45 -27l72 -100l72 100q21 27 45 27q17 0 33 -12q21 -16 21 -39q0 -19 -15 -37l-105 -126
q-21 -24 -51 -24t-51 24z" />
    <glyph glyph-name="ccedilla" unicode="&#xe7;" horiz-adv-x="601" 
d="M565 117q0 -17 -14 -33q-39 -41 -84.5 -63.5t-102.5 -28.5l-2 -5l-18 -34q42 -3 66.5 -24.5t24.5 -54.5q0 -38 -29 -65t-86 -27q-45 0 -77.5 15t-51.5 41q-8 11 -8 21q0 13 17 29q13 11 24 11q14 0 27 -16q11 -15 27.5 -22t31.5 -7q17 0 27 6.5t10 19.5q0 32 -43 28
q-21 -2 -37 9t-16 28q0 8 4 16l15 31q-112 12 -173 78t-61 176q0 121 74 187.5t208 66.5q71 0 128.5 -23.5t90.5 -66.5q12 -15 12 -32q0 -26 -27 -46q-12 -9 -30 -9q-14 0 -29 6.5t-26 18.5q-20 23 -51.5 35.5t-67.5 12.5q-71 0 -110.5 -39.5t-39.5 -110.5
q0 -73 39.5 -112.5t110.5 -39.5q79 0 135 53q28 28 55 28q18 0 33 -12q24 -19 24 -46z" />
    <glyph glyph-name="ccircumflex" unicode="&#x109;" horiz-adv-x="601" 
d="M110 57.5q-74 67.5 -74 188.5t74 187.5t208 66.5q71 0 128.5 -23.5t90.5 -66.5q12 -15 12 -32q0 -26 -27 -46q-12 -9 -30 -9q-14 0 -29 6.5t-26 18.5q-20 23 -51.5 35.5t-67.5 12.5q-71 0 -110.5 -39.5t-39.5 -110.5q0 -73 39.5 -112.5t110.5 -39.5q79 0 135 53
q28 28 55 28q18 0 33 -12q24 -19 24 -46q0 -17 -14 -33q-46 -49 -102.5 -71.5t-130.5 -22.5q-134 0 -208 67.5zM156 604q0 19 15 37l105 126q21 24 51 24t51 -24l105 -126q15 -18 15 -37q0 -22 -21 -39q-17 -12 -33 -12q-24 0 -45 27l-72 100l-72 -100q-21 -27 -45 -27
q-16 0 -33 12q-21 17 -21 39z" />
    <glyph glyph-name="cdotaccent" unicode="&#x10b;" horiz-adv-x="601" 
d="M110 57.5q-74 67.5 -74 188.5t74 187.5t208 66.5q71 0 128.5 -23.5t90.5 -66.5q12 -15 12 -32q0 -26 -27 -46q-12 -9 -30 -9q-14 0 -29 6.5t-26 18.5q-20 23 -51.5 35.5t-67.5 12.5q-71 0 -110.5 -39.5t-39.5 -110.5q0 -73 39.5 -112.5t110.5 -39.5q79 0 135 53
q28 28 55 28q18 0 33 -12q24 -19 24 -46q0 -17 -14 -33q-46 -49 -102.5 -71.5t-130.5 -22.5q-134 0 -208 67.5zM269 588.5q-23 21.5 -23 52.5q0 32 23 53.5t58 21.5q34 0 57 -21.5t23 -53.5q0 -31 -23 -52.5t-57 -21.5q-35 0 -58 21.5z" />
    <glyph glyph-name="d" unicode="d" horiz-adv-x="666" 
d="M164.5 20.5q-60.5 30.5 -94.5 88.5t-34 136t32.5 135.5t93.5 88.5t144 31q61 0 103 -19.5t79 -58.5l1 277q0 28 18 44t48 16t47.5 -15.5t17.5 -44.5v-649q0 -29 -17.5 -44.5t-47.5 -15.5t-48 16t-18 44v20q-67 -80 -186 -80q-78 0 -138.5 30.5zM445 134q44 40 44 111
t-44 111t-122 40q-73 0 -114 -40t-41 -111t41 -111t114 -40q78 0 122 40z" />
    <glyph glyph-name="eth" unicode="&#xf0;" horiz-adv-x="675" 
d="M635 323q0 -99 -37.5 -174t-108.5 -117t-169 -42q-88 0 -151 30t-96 85t-33 128t34 128t95.5 84.5t143.5 29.5q131 0 208 -97l2 1q-19 105 -84 162l-28 -29q-22 -24 -48 -24q-18 0 -32 13q-16 13 -16 32q0 21 20 41l19 19q-26 11 -65 23t-39 42q0 12 8 30q14 27 51 27
q19 0 37 -7q36 -12 84 -36l55 57q21 24 44 24q18 0 35 -14q17 -15 17 -33q0 -19 -20 -39l-50 -51q124 -111 124 -293zM439.5 132q42.5 37 42.5 101t-42.5 100.5t-119.5 36.5q-70 0 -108.5 -36.5t-38.5 -100.5t38.5 -101t108.5 -37q77 0 119.5 37z" />
    <glyph glyph-name="dcaron" unicode="&#x10f;" horiz-adv-x="833" 
d="M164.5 20.5q-60.5 30.5 -94.5 88.5t-34 136t32.5 135.5t93.5 88.5t144 31q61 0 103 -19.5t79 -58.5l1 277q0 28 18 44t48 16t47.5 -15.5t17.5 -44.5v-649q0 -29 -17.5 -44.5t-47.5 -15.5t-48 16t-18 44v20q-67 -80 -186 -80q-78 0 -138.5 30.5zM445 134q44 40 44 111
t-44 111t-122 40q-73 0 -114 -40t-41 -111t41 -111t114 -40q78 0 122 40zM693 520q0 18 22 37q16 13 27 28.5t14 29.5q-27 -2 -44.5 16t-17.5 47q0 35 22.5 53.5t61.5 18.5t62 -25.5t23 -63.5q0 -36 -23.5 -74.5t-63.5 -71.5q-26 -21 -50 -21q-18 0 -28 12q-5 5 -5 14z" />
    <glyph glyph-name="dcroat" unicode="&#x111;" horiz-adv-x="761" 
d="M741 597q0 -25 -16 -37.5t-44 -12.5h-61v-497q0 -29 -17.5 -44.5t-47.5 -15.5t-48 16t-18 44v20q-67 -80 -186 -80q-78 0 -138.5 30.5t-94.5 88.5t-34 136t32.5 135.5t93.5 88.5t144 31q61 0 103 -19.5t79 -58.5v125h-128q-28 0 -44 12.5t-16 37.5q0 51 60 51h129v51
q0 28 18 44t48 16t47.5 -15.5t17.5 -44.5v-51h61q60 0 60 -51zM445 134q44 40 44 111t-44 111t-122 40q-73 0 -114 -40t-41 -111t41 -111t114 -40q78 0 122 40z" />
    <glyph glyph-name="uni1E0D" unicode="&#x1e0d;" horiz-adv-x="666" 
d="M164.5 20.5q-60.5 30.5 -94.5 88.5t-34 136t32.5 135.5t93.5 88.5t144 31q61 0 103 -19.5t79 -58.5l1 277q0 28 18 44t48 16t47.5 -15.5t17.5 -44.5v-649q0 -29 -17.5 -44.5t-47.5 -15.5t-48 16t-18 44v20q-67 -80 -186 -80q-78 0 -138.5 30.5zM445 134q44 40 44 111
t-44 111t-122 40q-73 0 -114 -40t-41 -111t41 -111t114 -40q78 0 122 40zM253.5 -192q-21.5 20 -21.5 54q0 35 21.5 55t59.5 20q37 0 58.5 -20t21.5 -55q0 -34 -21.5 -54t-58.5 -20q-38 0 -59.5 20z" />
    <glyph glyph-name="uni1E0F" unicode="&#x1e0f;" horiz-adv-x="666" 
d="M164.5 20.5q-60.5 30.5 -94.5 88.5t-34 136t32.5 135.5t93.5 88.5t144 31q61 0 103 -19.5t79 -58.5l1 277q0 28 18 44t48 16t47.5 -15.5t17.5 -44.5v-649q0 -29 -17.5 -44.5t-47.5 -15.5t-48 16t-18 44v20q-67 -80 -186 -80q-78 0 -138.5 30.5zM445 134q44 40 44 111
t-44 111t-122 40q-73 0 -114 -40t-41 -111t41 -111t114 -40q78 0 122 40zM133 -124q0 22 12.5 31.5t39.5 9.5h256q27 0 39.5 -9.5t12.5 -31.5q0 -40 -52 -40h-256q-52 0 -52 40z" />
    <glyph glyph-name="e" unicode="e" horiz-adv-x="617" 
d="M169 21q-64 31 -98.5 87.5t-34.5 132.5q0 123 71.5 191t201.5 68q80 0 141.5 -25t96 -69.5t34.5 -101.5q0 -48 -30.5 -74t-86.5 -26h-301q0 -56 39.5 -84.5t116.5 -28.5q81 0 138 36q32 20 50 20q17 0 33 -16q17 -17 17 -37q0 -24 -20 -38q-42 -32 -98 -49t-120 -17
q-86 0 -150 31zM424 296q17 0 24 6.5t7 21.5q0 35 -39.5 55t-106.5 20t-105.5 -28t-38.5 -75h259z" />
    <glyph glyph-name="eacute" unicode="&#xe9;" horiz-adv-x="617" 
d="M169 21q-64 31 -98.5 87.5t-34.5 132.5q0 123 71.5 191t201.5 68q80 0 141.5 -25t96 -69.5t34.5 -101.5q0 -48 -30.5 -74t-86.5 -26h-301q0 -56 39.5 -84.5t116.5 -28.5q81 0 138 36q32 20 50 20q17 0 33 -16q17 -17 17 -37q0 -24 -20 -38q-42 -32 -98 -49t-120 -17
q-86 0 -150 31zM424 296q17 0 24 6.5t7 21.5q0 35 -39.5 55t-106.5 20t-105.5 -28t-38.5 -75h259zM284.5 579.5q-6.5 10.5 -6.5 22.5q0 9 3 16l57 146q15 40 50 40q17 0 33 -8q38 -18 38 -48q0 -13 -9 -27l-81 -139q-7 -11 -18.5 -17.5t-25.5 -6.5t-23 5q-11 6 -17.5 16.5z
" />
    <glyph glyph-name="ebreve" unicode="&#x115;" horiz-adv-x="617" 
d="M169 21q-64 31 -98.5 87.5t-34.5 132.5q0 123 71.5 191t201.5 68q80 0 141.5 -25t96 -69.5t34.5 -101.5q0 -48 -30.5 -74t-86.5 -26h-301q0 -56 39.5 -84.5t116.5 -28.5q81 0 138 36q32 20 50 20q17 0 33 -16q17 -17 17 -37q0 -24 -20 -38q-42 -32 -98 -49t-120 -17
q-86 0 -150 31zM424 296q17 0 24 6.5t7 21.5q0 35 -39.5 55t-106.5 20t-105.5 -28t-38.5 -75h259zM173 602q-52 46 -52 124q0 28 16 43t45 15t45 -15t16 -43q0 -37 18.5 -57t52.5 -20t52.5 20t18.5 57q0 28 16 43t45 15t45 -15t16 -43q0 -78 -52 -124t-141 -46t-141 46z" />
    <glyph glyph-name="ecaron" unicode="&#x11b;" horiz-adv-x="617" 
d="M169 21q-64 31 -98.5 87.5t-34.5 132.5q0 123 71.5 191t201.5 68q80 0 141.5 -25t96 -69.5t34.5 -101.5q0 -48 -30.5 -74t-86.5 -26h-301q0 -56 39.5 -84.5t116.5 -28.5q81 0 138 36q32 20 50 20q17 0 33 -16q17 -17 17 -37q0 -24 -20 -38q-42 -32 -98 -49t-120 -17
q-86 0 -150 31zM424 296q17 0 24 6.5t7 21.5q0 35 -39.5 55t-106.5 20t-105.5 -28t-38.5 -75h259zM263 577l-105 126q-15 18 -15 37q0 23 21 39q17 12 33 12q24 0 45 -27l72 -100l72 100q21 27 45 27q17 0 33 -12q21 -16 21 -39q0 -19 -15 -37l-105 -126q-21 -24 -51 -24
t-51 24z" />
    <glyph glyph-name="ecircumflex" unicode="&#xea;" horiz-adv-x="617" 
d="M169 21q-64 31 -98.5 87.5t-34.5 132.5q0 123 71.5 191t201.5 68q80 0 141.5 -25t96 -69.5t34.5 -101.5q0 -48 -30.5 -74t-86.5 -26h-301q0 -56 39.5 -84.5t116.5 -28.5q81 0 138 36q32 20 50 20q17 0 33 -16q17 -17 17 -37q0 -24 -20 -38q-42 -32 -98 -49t-120 -17
q-86 0 -150 31zM424 296q17 0 24 6.5t7 21.5q0 35 -39.5 55t-106.5 20t-105.5 -28t-38.5 -75h259zM143 604q0 19 15 37l105 126q21 24 51 24t51 -24l105 -126q15 -18 15 -37q0 -22 -21 -39q-17 -12 -33 -12q-24 0 -45 27l-72 100l-72 -100q-21 -27 -45 -27q-16 0 -33 12
q-21 17 -21 39z" />
    <glyph glyph-name="uni1EBF" unicode="&#x1ebf;" horiz-adv-x="617" 
d="M169 21q-64 31 -98.5 87.5t-34.5 132.5q0 123 71.5 191t201.5 68q80 0 141.5 -25t96 -69.5t34.5 -101.5q0 -48 -30.5 -74t-86.5 -26h-301q0 -56 39.5 -84.5t116.5 -28.5q81 0 138 36q32 20 50 20q17 0 33 -16q17 -17 17 -37q0 -24 -20 -38q-42 -32 -98 -49t-120 -17
q-86 0 -150 31zM424 296q17 0 24 6.5t7 21.5q0 35 -39.5 55t-106.5 20t-105.5 -28t-38.5 -75h259zM403 769q0 13 6 23l64 108q8 14 20.5 21t25.5 7q18 0 34 -11q11 -8 17 -19t6 -23q0 -16 -12 -31l-84 -97q-16 -18 -36 -18q-14 0 -26 9q-15 12 -15 31zM142 604q0 18 16 36
l105 116q21 24 51 24t51 -24l105 -116q16 -18 16 -36q0 -23 -22 -40q-15 -12 -32 -12q-25 0 -46 27l-72 90l-72 -90q-21 -27 -46 -27q-17 0 -32 12q-22 17 -22 40z" />
    <glyph glyph-name="uni1EC7" unicode="&#x1ec7;" horiz-adv-x="617" 
d="M169 21q-64 31 -98.5 87.5t-34.5 132.5q0 123 71.5 191t201.5 68q80 0 141.5 -25t96 -69.5t34.5 -101.5q0 -48 -30.5 -74t-86.5 -26h-301q0 -56 39.5 -84.5t116.5 -28.5q81 0 138 36q32 20 50 20q17 0 33 -16q17 -17 17 -37q0 -24 -20 -38q-42 -32 -98 -49t-120 -17
q-86 0 -150 31zM424 296q17 0 24 6.5t7 21.5q0 35 -39.5 55t-106.5 20t-105.5 -28t-38.5 -75h259zM254.5 -192q-21.5 20 -21.5 54q0 35 21.5 55t59.5 20q37 0 58.5 -20t21.5 -55q0 -34 -21.5 -54t-58.5 -20q-38 0 -59.5 20zM143 604q0 19 15 37l105 126q21 24 51 24t51 -24
l105 -126q15 -18 15 -37q0 -22 -21 -39q-17 -12 -33 -12q-24 0 -45 27l-72 100l-72 -100q-21 -27 -45 -27q-16 0 -33 12q-21 17 -21 39z" />
    <glyph glyph-name="uni1EC1" unicode="&#x1ec1;" horiz-adv-x="617" 
d="M169 21q-64 31 -98.5 87.5t-34.5 132.5q0 123 71.5 191t201.5 68q80 0 141.5 -25t96 -69.5t34.5 -101.5q0 -48 -30.5 -74t-86.5 -26h-301q0 -56 39.5 -84.5t116.5 -28.5q81 0 138 36q32 20 50 20q17 0 33 -16q17 -17 17 -37q0 -24 -20 -38q-42 -32 -98 -49t-120 -17
q-86 0 -150 31zM424 296q17 0 24 6.5t7 21.5q0 35 -39.5 55t-106.5 20t-105.5 -28t-38.5 -75h259zM465 729q-20 0 -36 18l-84 97q-12 15 -12 31q0 12 6 23t17 19q16 11 34 11q13 0 25.5 -7t20.5 -21l64 -108q6 -10 6 -23q0 -19 -15 -31q-12 -9 -26 -9zM142 604q0 18 16 36
l105 116q21 24 51 24t51 -24l105 -116q16 -18 16 -36q0 -23 -22 -40q-15 -12 -32 -12q-25 0 -46 27l-72 90l-72 -90q-21 -27 -46 -27q-17 0 -32 12q-22 17 -22 40z" />
    <glyph glyph-name="uni1EC3" unicode="&#x1ec3;" horiz-adv-x="617" 
d="M169 21q-64 31 -98.5 87.5t-34.5 132.5q0 123 71.5 191t201.5 68q80 0 141.5 -25t96 -69.5t34.5 -101.5q0 -48 -30.5 -74t-86.5 -26h-301q0 -56 39.5 -84.5t116.5 -28.5q81 0 138 36q32 20 50 20q17 0 33 -16q17 -17 17 -37q0 -24 -20 -38q-42 -32 -98 -49t-120 -17
q-86 0 -150 31zM424 296q17 0 24 6.5t7 21.5q0 35 -39.5 55t-106.5 20t-105.5 -28t-38.5 -75h259zM418.5 726.5q-13.5 8.5 -13.5 23.5v4q0 15 8.5 26t25.5 27q12 10 18 17.5t6 14.5q0 8 -5.5 13t-15.5 5q-17 0 -38 -21q-12 -12 -27 -12q-12 0 -24 9q-14 11 -14 25q0 9 7 19
q15 21 45.5 35t69.5 14q53 0 79.5 -20t26.5 -53q0 -18 -10 -31.5t-29 -30.5q-13 -11 -19.5 -19t-6.5 -17v-5q0 -15 -13 -23.5t-35 -8.5t-35.5 8.5zM142 604q0 18 16 36l105 116q21 24 51 24t51 -24l105 -116q16 -18 16 -36q0 -23 -22 -40q-15 -12 -32 -12q-25 0 -46 27
l-72 90l-72 -90q-21 -27 -46 -27q-17 0 -32 12q-22 17 -22 40z" />
    <glyph glyph-name="uni1EC5" unicode="&#x1ec5;" horiz-adv-x="617" 
d="M169 21q-64 31 -98.5 87.5t-34.5 132.5q0 123 71.5 191t201.5 68q80 0 141.5 -25t96 -69.5t34.5 -101.5q0 -48 -30.5 -74t-86.5 -26h-301q0 -56 39.5 -84.5t116.5 -28.5q81 0 138 36q32 20 50 20q17 0 33 -16q17 -17 17 -37q0 -24 -20 -38q-42 -32 -98 -49t-120 -17
q-86 0 -150 31zM424 296q17 0 24 6.5t7 21.5q0 35 -39.5 55t-106.5 20t-105.5 -28t-38.5 -75h259zM145.5 797.5q-11.5 9.5 -11.5 25.5q0 9 5 22q16 38 42 58.5t66 20.5q26 0 46 -8.5t48 -25.5q18 -11 27.5 -15.5t18.5 -4.5q13 0 21 7t16 23q14 30 39 30q19 0 30.5 -10
t11.5 -26q0 -9 -5 -21q-17 -39 -42.5 -59.5t-65.5 -20.5q-24 0 -42.5 8t-41.5 23q-19 12 -30.5 17.5t-24.5 5.5t-21 -6.5t-16 -23.5q-15 -29 -39 -29q-20 0 -31.5 9.5zM142 604q0 18 16 36l105 116q21 24 51 24t51 -24l105 -116q16 -18 16 -36q0 -23 -22 -40
q-15 -12 -32 -12q-25 0 -46 27l-72 90l-72 -90q-21 -27 -46 -27q-17 0 -32 12q-22 17 -22 40z" />
    <glyph glyph-name="edieresis" unicode="&#xeb;" horiz-adv-x="617" 
d="M169 21q-64 31 -98.5 87.5t-34.5 132.5q0 123 71.5 191t201.5 68q80 0 141.5 -25t96 -69.5t34.5 -101.5q0 -48 -30.5 -74t-86.5 -26h-301q0 -56 39.5 -84.5t116.5 -28.5q81 0 138 36q32 20 50 20q17 0 33 -16q17 -17 17 -37q0 -24 -20 -38q-42 -32 -98 -49t-120 -17
q-86 0 -150 31zM424 296q17 0 24 6.5t7 21.5q0 35 -39.5 55t-106.5 20t-105.5 -28t-38.5 -75h259zM146 595.5q-20 19.5 -20 48.5t19.5 49t51.5 20q31 0 50.5 -19.5t19.5 -49.5q0 -28 -19.5 -48t-50.5 -20t-51 19.5zM382 595.5q-20 19.5 -20 48.5t19.5 49t51.5 20
q31 0 50.5 -19.5t19.5 -49.5q0 -28 -19.5 -48t-50.5 -20t-51 19.5z" />
    <glyph glyph-name="edotaccent" unicode="&#x117;" horiz-adv-x="617" 
d="M169 21q-64 31 -98.5 87.5t-34.5 132.5q0 123 71.5 191t201.5 68q80 0 141.5 -25t96 -69.5t34.5 -101.5q0 -48 -30.5 -74t-86.5 -26h-301q0 -56 39.5 -84.5t116.5 -28.5q81 0 138 36q32 20 50 20q17 0 33 -16q17 -17 17 -37q0 -24 -20 -38q-42 -32 -98 -49t-120 -17
q-86 0 -150 31zM424 296q17 0 24 6.5t7 21.5q0 35 -39.5 55t-106.5 20t-105.5 -28t-38.5 -75h259zM256 588.5q-23 21.5 -23 52.5q0 32 23 53.5t58 21.5q34 0 57 -21.5t23 -53.5q0 -31 -23 -52.5t-57 -21.5q-35 0 -58 21.5z" />
    <glyph glyph-name="uni1EB9" unicode="&#x1eb9;" horiz-adv-x="617" 
d="M169 21q-64 31 -98.5 87.5t-34.5 132.5q0 123 71.5 191t201.5 68q80 0 141.5 -25t96 -69.5t34.5 -101.5q0 -48 -30.5 -74t-86.5 -26h-301q0 -56 39.5 -84.5t116.5 -28.5q81 0 138 36q32 20 50 20q17 0 33 -16q17 -17 17 -37q0 -24 -20 -38q-42 -32 -98 -49t-120 -17
q-86 0 -150 31zM424 296q17 0 24 6.5t7 21.5q0 35 -39.5 55t-106.5 20t-105.5 -28t-38.5 -75h259zM254.5 -192q-21.5 20 -21.5 54q0 35 21.5 55t59.5 20q37 0 58.5 -20t21.5 -55q0 -34 -21.5 -54t-58.5 -20q-38 0 -59.5 20z" />
    <glyph glyph-name="egrave" unicode="&#xe8;" horiz-adv-x="617" 
d="M169 21q-64 31 -98.5 87.5t-34.5 132.5q0 123 71.5 191t201.5 68q80 0 141.5 -25t96 -69.5t34.5 -101.5q0 -48 -30.5 -74t-86.5 -26h-301q0 -56 39.5 -84.5t116.5 -28.5q81 0 138 36q32 20 50 20q17 0 33 -16q17 -17 17 -37q0 -24 -20 -38q-42 -32 -98 -49t-120 -17
q-86 0 -150 31zM424 296q17 0 24 6.5t7 21.5q0 35 -39.5 55t-106.5 20t-105.5 -28t-38.5 -75h259zM329 558q-14 0 -25.5 6.5t-18.5 17.5l-81 139q-9 14 -9 27q0 30 38 48q16 8 33 8q35 0 50 -40l57 -146q3 -7 3 -16q0 -12 -6.5 -22.5t-17.5 -16.5q-9 -5 -23 -5z" />
    <glyph glyph-name="uni1EBB" unicode="&#x1ebb;" horiz-adv-x="617" 
d="M169 21q-64 31 -98.5 87.5t-34.5 132.5q0 123 71.5 191t201.5 68q80 0 141.5 -25t96 -69.5t34.5 -101.5q0 -48 -30.5 -74t-86.5 -26h-301q0 -56 39.5 -84.5t116.5 -28.5q81 0 138 36q32 20 50 20q17 0 33 -16q17 -17 17 -37q0 -24 -20 -38q-42 -32 -98 -49t-120 -17
q-86 0 -150 31zM424 296q17 0 24 6.5t7 21.5q0 35 -39.5 55t-106.5 20t-105.5 -28t-38.5 -75h259zM273.5 551.5q-15.5 9.5 -15.5 27.5v5q0 17 10.5 31t29.5 30q14 12 20.5 19.5t6.5 15.5q0 9 -6.5 15t-18.5 6q-10 0 -22 -6.5t-22 -17.5q-11 -12 -28 -12q-15 0 -29 10
q-16 12 -16 28q0 10 8 21q19 24 52.5 40t78.5 16q61 0 91.5 -23t30.5 -62q0 -20 -11.5 -35.5t-32.5 -34.5q-16 -14 -23 -22.5t-7 -17.5v-6q0 -18 -15.5 -27.5t-40.5 -9.5t-40.5 9.5z" />
    <glyph glyph-name="emacron" unicode="&#x113;" horiz-adv-x="617" 
d="M169 21q-64 31 -98.5 87.5t-34.5 132.5q0 123 71.5 191t201.5 68q80 0 141.5 -25t96 -69.5t34.5 -101.5q0 -48 -30.5 -74t-86.5 -26h-301q0 -56 39.5 -84.5t116.5 -28.5q81 0 138 36q32 20 50 20q17 0 33 -16q17 -17 17 -37q0 -24 -20 -38q-42 -32 -98 -49t-120 -17
q-86 0 -150 31zM424 296q17 0 24 6.5t7 21.5q0 35 -39.5 55t-106.5 20t-105.5 -28t-38.5 -75h259zM131 604q0 22 12.5 31.5t39.5 9.5h256q27 0 39.5 -9.5t12.5 -31.5q0 -40 -52 -40h-256q-52 0 -52 40z" />
    <glyph glyph-name="eogonek" unicode="&#x119;" horiz-adv-x="617" 
d="M507 147q17 0 33 -16q17 -17 17 -37q0 -24 -20 -38q-57 -43 -134 -58l-1 -1l-20 -17q-30 -25 -41 -39.5t-11 -36.5q0 -16 11.5 -24t25.5 -8q27 0 43 15q12 11 26 11q13 0 24 -11q13 -13 13 -27t-14 -28q-40 -40 -104 -40q-57 0 -93.5 24t-36.5 74q0 54 43 103
q-108 14 -170 80t-62 168q0 123 71.5 191t201.5 68q80 0 141.5 -25t96 -69.5t34.5 -101.5q0 -48 -30.5 -74t-86.5 -26h-301q0 -56 39.5 -84.5t116.5 -28.5q81 0 138 36q32 20 50 20zM203.5 371q-38.5 -28 -38.5 -75h259q17 0 24 6.5t7 21.5q0 35 -39.5 55t-106.5 20
t-105.5 -28z" />
    <glyph glyph-name="uni1EBD" unicode="&#x1ebd;" horiz-adv-x="617" 
d="M169 21q-64 31 -98.5 87.5t-34.5 132.5q0 123 71.5 191t201.5 68q80 0 141.5 -25t96 -69.5t34.5 -101.5q0 -48 -30.5 -74t-86.5 -26h-301q0 -56 39.5 -84.5t116.5 -28.5q81 0 138 36q32 20 50 20q17 0 33 -16q17 -17 17 -37q0 -24 -20 -38q-42 -32 -98 -49t-120 -17
q-86 0 -150 31zM424 296q17 0 24 6.5t7 21.5q0 35 -39.5 55t-106.5 20t-105.5 -28t-38.5 -75h259zM125.5 599q-7.5 9 -7.5 22t5 23q18 41 45 62.5t69 21.5q27 0 49 -9.5t50 -26.5q4 -2 14.5 -8.5t18.5 -9.5t15 -3q13 0 22 7t17 25q16 32 41 32q20 0 32.5 -10.5t12.5 -27.5
q0 -13 -5 -23q-18 -41 -45 -62.5t-69 -21.5q-25 0 -45 8.5t-45 24.5q-17 12 -30 18t-27 6q-13 0 -22 -7t-17 -25q-16 -32 -41 -32q-8 0 -17 3q-13 4 -20.5 13z" />
    <glyph glyph-name="uni0259" unicode="&#x259;" horiz-adv-x="637" 
d="M172.5 15.5q-62.5 24.5 -97.5 69t-35 102.5q0 49 30.5 75t86.5 26h312q0 50 -44 80t-118 30q-81 0 -142 -40q-29 -20 -50 -20q-18 0 -34 16q-17 19 -17 38q0 23 20 38q44 34 101.5 52t121.5 18q89 0 154.5 -30t100.5 -86.5t35 -133.5q0 -121 -74.5 -190t-205.5 -69
q-82 0 -144.5 24.5zM426 121q41 28 41 74h-268q-17 0 -24 -6.5t-7 -21.5q0 -35 39 -54.5t110 -19.5q68 0 109 28z" />
    <glyph glyph-name="f" unicode="f" horiz-adv-x="487" 
d="M461 661q0 -13 -8 -27q-16 -27 -40 -27q-11 0 -28 6q-41 17 -78 17q-28 0 -45 -17.5t-17 -46.5v-76h115q31 0 48.5 -14t17.5 -38q0 -23 -17.5 -37t-48.5 -14h-115v-337q0 -28 -17 -44t-48 -16q-30 0 -48 16t-18 44v337h-22q-30 0 -48 14t-18 37q0 24 17.5 38t48.5 14h22
v72q0 77 49.5 124.5t128.5 47.5q51 0 84 -7.5t60 -24.5q25 -16 25 -41z" />
    <glyph glyph-name="g" unicode="g" horiz-adv-x="666" 
d="M190.5 -227q-65.5 23 -102.5 63q-14 15 -14 34q0 25 24 45q15 12 32 12q26 0 58 -29q24 -22 60.5 -34.5t78.5 -12.5q78 0 121 47t41 130l-1 40q-34 -40 -79.5 -59t-111.5 -19q-123 0 -192 67.5t-69 187.5t70.5 187.5t196.5 67.5q52 0 100 -21t86 -59v20q0 28 18 44t48 16
t47.5 -15.5t17.5 -44.5v-412q0 -80 -34.5 -143t-99 -99t-152.5 -36q-78 0 -143.5 23zM445 134q44 40 44 111t-44 111t-122 40q-73 0 -114 -40t-41 -111t41 -111t114 -40q78 0 122 40z" />
    <glyph glyph-name="gbreve" unicode="&#x11f;" horiz-adv-x="666" 
d="M190.5 -227q-65.5 23 -102.5 63q-14 15 -14 34q0 25 24 45q15 12 32 12q26 0 58 -29q24 -22 60.5 -34.5t78.5 -12.5q78 0 121 47t41 130l-1 40q-34 -40 -79.5 -59t-111.5 -19q-123 0 -192 67.5t-69 187.5t70.5 187.5t196.5 67.5q52 0 100 -21t86 -59v20q0 28 18 44t48 16
t47.5 -15.5t17.5 -44.5v-412q0 -80 -34.5 -143t-99 -99t-152.5 -36q-78 0 -143.5 23zM445 134q44 40 44 111t-44 111t-122 40q-73 0 -114 -40t-41 -111t41 -111t114 -40q78 0 122 40zM168 602q-52 46 -52 124q0 28 16 43t45 15t45 -15t16 -43q0 -37 18.5 -57t52.5 -20
t52.5 20t18.5 57q0 28 16 43t45 15t45 -15t16 -43q0 -78 -52 -124t-141 -46t-141 46z" />
    <glyph glyph-name="gcaron" unicode="&#x1e7;" horiz-adv-x="666" 
d="M190.5 -227q-65.5 23 -102.5 63q-14 15 -14 34q0 25 24 45q15 12 32 12q26 0 58 -29q24 -22 60.5 -34.5t78.5 -12.5q78 0 121 47t41 130l-1 40q-34 -40 -79.5 -59t-111.5 -19q-123 0 -192 67.5t-69 187.5t70.5 187.5t196.5 67.5q52 0 100 -21t86 -59v20q0 28 18 44t48 16
t47.5 -15.5t17.5 -44.5v-412q0 -80 -34.5 -143t-99 -99t-152.5 -36q-78 0 -143.5 23zM445 134q44 40 44 111t-44 111t-122 40q-73 0 -114 -40t-41 -111t41 -111t114 -40q78 0 122 40zM258 577l-105 126q-15 18 -15 37q0 23 21 39q17 12 33 12q24 0 45 -27l72 -100l72 100
q21 27 45 27q17 0 33 -12q21 -16 21 -39q0 -19 -15 -37l-105 -126q-21 -24 -51 -24t-51 24z" />
    <glyph glyph-name="gcircumflex" unicode="&#x11d;" horiz-adv-x="666" 
d="M190.5 -227q-65.5 23 -102.5 63q-14 15 -14 34q0 25 24 45q15 12 32 12q26 0 58 -29q24 -22 60.5 -34.5t78.5 -12.5q78 0 121 47t41 130l-1 40q-34 -40 -79.5 -59t-111.5 -19q-123 0 -192 67.5t-69 187.5t70.5 187.5t196.5 67.5q52 0 100 -21t86 -59v20q0 28 18 44t48 16
t47.5 -15.5t17.5 -44.5v-412q0 -80 -34.5 -143t-99 -99t-152.5 -36q-78 0 -143.5 23zM445 134q44 40 44 111t-44 111t-122 40q-73 0 -114 -40t-41 -111t41 -111t114 -40q78 0 122 40zM138 604q0 19 15 37l105 126q21 24 51 24t51 -24l105 -126q15 -18 15 -37q0 -22 -21 -39
q-17 -12 -33 -12q-24 0 -45 27l-72 100l-72 -100q-21 -27 -45 -27q-16 0 -33 12q-21 17 -21 39z" />
    <glyph glyph-name="uni0123" unicode="&#x123;" horiz-adv-x="666" 
d="M190.5 -227q-65.5 23 -102.5 63q-14 15 -14 34q0 25 24 45q15 12 32 12q26 0 58 -29q24 -22 60.5 -34.5t78.5 -12.5q78 0 121 47t41 130l-1 40q-34 -40 -79.5 -59t-111.5 -19q-123 0 -192 67.5t-69 187.5t70.5 187.5t196.5 67.5q52 0 100 -21t86 -59v20q0 28 18 44t48 16
t47.5 -15.5t17.5 -44.5v-412q0 -80 -34.5 -143t-99 -99t-152.5 -36q-78 0 -143.5 23zM445 134q44 40 44 111t-44 111t-122 40q-73 0 -114 -40t-41 -111t41 -111t114 -40q78 0 122 40zM247 590.5q-23 25.5 -23 63.5q0 37 23 76t64 70q27 21 51 21q17 0 27 -12q5 -5 5 -14
q0 -18 -22 -37q-16 -13 -27 -28.5t-14 -29.5q27 2 44.5 -16t17.5 -47q0 -35 -22.5 -53.5t-61.5 -18.5t-62 25.5z" />
    <glyph glyph-name="gdotaccent" unicode="&#x121;" horiz-adv-x="666" 
d="M190.5 -227q-65.5 23 -102.5 63q-14 15 -14 34q0 25 24 45q15 12 32 12q26 0 58 -29q24 -22 60.5 -34.5t78.5 -12.5q78 0 121 47t41 130l-1 40q-34 -40 -79.5 -59t-111.5 -19q-123 0 -192 67.5t-69 187.5t70.5 187.5t196.5 67.5q52 0 100 -21t86 -59v20q0 28 18 44t48 16
t47.5 -15.5t17.5 -44.5v-412q0 -80 -34.5 -143t-99 -99t-152.5 -36q-78 0 -143.5 23zM445 134q44 40 44 111t-44 111t-122 40q-73 0 -114 -40t-41 -111t41 -111t114 -40q78 0 122 40zM251 588.5q-23 21.5 -23 52.5q0 32 23 53.5t58 21.5q34 0 57 -21.5t23 -53.5
q0 -31 -23 -52.5t-57 -21.5q-35 0 -58 21.5z" />
    <glyph glyph-name="uni1E21" unicode="&#x1e21;" horiz-adv-x="666" 
d="M190.5 -227q-65.5 23 -102.5 63q-14 15 -14 34q0 25 24 45q15 12 32 12q26 0 58 -29q24 -22 60.5 -34.5t78.5 -12.5q78 0 121 47t41 130l-1 40q-34 -40 -79.5 -59t-111.5 -19q-123 0 -192 67.5t-69 187.5t70.5 187.5t196.5 67.5q52 0 100 -21t86 -59v20q0 28 18 44t48 16
t47.5 -15.5t17.5 -44.5v-412q0 -80 -34.5 -143t-99 -99t-152.5 -36q-78 0 -143.5 23zM445 134q44 40 44 111t-44 111t-122 40q-73 0 -114 -40t-41 -111t41 -111t114 -40q78 0 122 40zM126 604q0 22 12.5 31.5t39.5 9.5h256q27 0 39.5 -9.5t12.5 -31.5q0 -40 -52 -40h-256
q-52 0 -52 40z" />
    <glyph glyph-name="h" unicode="h" horiz-adv-x="615" 
d="M63 6q-17 16 -17 44v649q0 28 17 44t48 16q30 0 48 -16t18 -44v-288q37 46 83 67.5t107 21.5q96 0 151.5 -60.5t55.5 -164.5v-225q0 -28 -18 -44t-48 -16q-31 0 -48 16t-17 44v225q0 57 -28 89t-78 32q-76 0 -118 -44.5t-42 -124.5v-177q0 -28 -18 -44t-48 -16
q-31 0 -48 16z" />
    <glyph glyph-name="hbar" unicode="&#x127;" horiz-adv-x="678" 
d="M588.5 439.5q55.5 -60.5 55.5 -164.5v-225q0 -28 -18 -44t-48 -16q-31 0 -48 16t-17 44v225q0 57 -28 89t-78 32q-76 0 -118 -44.5t-42 -124.5v-177q0 -28 -18 -44t-48 -16q-31 0 -48 16t-17 44v507h-36q-28 0 -44 12.5t-16 37.5q0 51 60 51h36v41q0 28 17 44t48 16
q30 0 48 -16t18 -44v-41h104q60 0 60 -51q0 -25 -16 -37.5t-44 -12.5h-104v-146q37 46 83 67.5t107 21.5q96 0 151.5 -60.5z" />
    <glyph glyph-name="uni1E2B" unicode="&#x1e2b;" horiz-adv-x="615" 
d="M63 6q-17 16 -17 44v649q0 28 17 44t48 16q30 0 48 -16t18 -44v-288q37 46 83 67.5t107 21.5q96 0 151.5 -60.5t55.5 -164.5v-225q0 -28 -18 -44t-48 -16q-31 0 -48 16t-17 44v225q0 57 -28 89t-78 32q-76 0 -118 -44.5t-42 -124.5v-177q0 -28 -18 -44t-48 -16
q-31 0 -48 16zM184 -243.5q-48 40.5 -48 111.5q0 27 15 42.5t41 15.5q28 0 41 -14.5t13 -43.5q0 -30 20 -47t54 -17t54 17t20 47q0 29 13 43.5t41 14.5q26 0 41 -15.5t15 -42.5q0 -71 -48 -111.5t-136 -40.5t-136 40.5z" />
    <glyph glyph-name="hcircumflex" unicode="&#x125;" horiz-adv-x="615" 
d="M63 6q-17 16 -17 44v649q0 28 17 44t48 16q30 0 48 -16t18 -44v-288q37 46 83 67.5t107 21.5q96 0 151.5 -60.5t55.5 -164.5v-225q0 -28 -18 -44t-48 -16q-31 0 -48 16t-17 44v225q0 57 -28 89t-78 32q-76 0 -118 -44.5t-42 -124.5v-177q0 -28 -18 -44t-48 -16
q-31 0 -48 16zM65 863q0 19 15 37l105 126q21 24 51 24t51 -24l105 -126q15 -18 15 -37q0 -22 -21 -39q-17 -12 -33 -12q-24 0 -45 27l-72 100l-72 -100q-21 -27 -45 -27q-16 0 -33 12q-21 17 -21 39z" />
    <glyph glyph-name="uni1E25" unicode="&#x1e25;" horiz-adv-x="615" 
d="M63 6q-17 16 -17 44v649q0 28 17 44t48 16q30 0 48 -16t18 -44v-288q37 46 83 67.5t107 21.5q96 0 151.5 -60.5t55.5 -164.5v-225q0 -28 -18 -44t-48 -16q-31 0 -48 16t-17 44v225q0 57 -28 89t-78 32q-76 0 -118 -44.5t-42 -124.5v-177q0 -28 -18 -44t-48 -16
q-31 0 -48 16zM259.5 -192q-21.5 20 -21.5 54q0 35 21.5 55t59.5 20q37 0 58.5 -20t21.5 -55q0 -34 -21.5 -54t-58.5 -20q-38 0 -59.5 20z" />
    <glyph glyph-name="i" unicode="i" horiz-adv-x="258" 
d="M68.5 582.5q-22.5 20.5 -22.5 53.5t22.5 53.5t59.5 20.5t60.5 -20.5t23.5 -53.5t-23.5 -53.5t-60.5 -20.5t-59.5 20.5zM81 6q-17 16 -17 44v390q0 28 17 44t48 16q30 0 48 -16t18 -44v-390q0 -28 -18 -44t-48 -16q-31 0 -48 16z" />
    <glyph glyph-name="dotlessi" unicode="&#x131;" horiz-adv-x="258" 
d="M81.5 5.5q-17.5 15.5 -17.5 44.5v390q0 29 17.5 44.5t47.5 15.5t48 -16t18 -44v-390q0 -28 -18 -44t-48 -16t-47.5 15.5z" />
    <glyph glyph-name="iacute" unicode="&#xed;" horiz-adv-x="258" 
d="M81.5 5.5q-17.5 15.5 -17.5 44.5v390q0 29 17.5 44.5t47.5 15.5t48 -16t18 -44v-390q0 -28 -18 -44t-48 -16t-47.5 15.5zM99.5 559.5q-6.5 10.5 -6.5 22.5q0 9 3 16l57 146q15 40 50 40q17 0 33 -8q38 -18 38 -48q0 -13 -9 -27l-81 -139q-7 -11 -18.5 -17.5t-25.5 -6.5
t-23 5q-11 6 -17.5 16.5z" />
    <glyph glyph-name="ibreve" unicode="&#x12d;" horiz-adv-x="258" 
d="M81.5 5.5q-17.5 15.5 -17.5 44.5v390q0 29 17.5 44.5t47.5 15.5t48 -16t18 -44v-390q0 -28 -18 -44t-48 -16t-47.5 15.5zM-12 582q-52 46 -52 124q0 28 16 43t45 15t45 -15t16 -43q0 -37 18.5 -57t52.5 -20t52.5 20t18.5 57q0 28 16 43t45 15t45 -15t16 -43
q0 -78 -52 -124t-141 -46t-141 46z" />
    <glyph glyph-name="uni01D0" unicode="&#x1d0;" horiz-adv-x="258" 
d="M81.5 5.5q-17.5 15.5 -17.5 44.5v390q0 29 17.5 44.5t47.5 15.5t48 -16t18 -44v-390q0 -28 -18 -44t-48 -16t-47.5 15.5zM78 557l-105 126q-15 18 -15 37q0 23 21 39q17 12 33 12q24 0 45 -27l72 -100l72 100q21 27 45 27q16 0 33 -12q21 -16 21 -39q0 -19 -15 -37
l-105 -126q-21 -24 -51 -24t-51 24z" />
    <glyph glyph-name="icircumflex" unicode="&#xee;" horiz-adv-x="258" 
d="M81.5 5.5q-17.5 15.5 -17.5 44.5v390q0 29 17.5 44.5t47.5 15.5t48 -16t18 -44v-390q0 -28 -18 -44t-48 -16t-47.5 15.5zM-42 584q0 19 15 37l105 126q21 24 51 24t51 -24l105 -126q15 -18 15 -37q0 -22 -21 -39q-16 -12 -33 -12q-24 0 -45 27l-72 100l-72 -100
q-21 -27 -45 -27q-17 0 -33 12q-21 17 -21 39z" />
    <glyph glyph-name="idieresis" unicode="&#xef;" horiz-adv-x="258" 
d="M81.5 5.5q-17.5 15.5 -17.5 44.5v390q0 29 17.5 44.5t47.5 15.5t48 -16t18 -44v-390q0 -28 -18 -44t-48 -16t-47.5 15.5zM-39 575.5q-20 19.5 -20 48.5t19.5 49t51.5 20q31 0 50.5 -19.5t19.5 -49.5q0 -28 -19.5 -48t-50.5 -20t-51 19.5zM197 575.5q-20 19.5 -20 48.5
t19.5 49t51.5 20q31 0 50.5 -19.5t19.5 -49.5q0 -28 -19.5 -48t-50.5 -20t-51 19.5z" />
    <glyph glyph-name="uni1ECB" unicode="&#x1ecb;" horiz-adv-x="258" 
d="M68.5 582.5q-22.5 20.5 -22.5 53.5t22.5 53.5t59.5 20.5t60.5 -20.5t23.5 -53.5t-23.5 -53.5t-60.5 -20.5t-59.5 20.5zM81 6q-17 16 -17 44v390q0 28 17 44t48 16q30 0 48 -16t18 -44v-390q0 -28 -18 -44t-48 -16q-31 0 -48 16zM69.5 -192q-21.5 20 -21.5 54
q0 35 21.5 55t59.5 20q37 0 58.5 -20t21.5 -55q0 -34 -21.5 -54t-58.5 -20q-38 0 -59.5 20z" />
    <glyph glyph-name="igrave" unicode="&#xec;" horiz-adv-x="258" 
d="M81.5 5.5q-17.5 15.5 -17.5 44.5v390q0 29 17.5 44.5t47.5 15.5t48 -16t18 -44v-390q0 -28 -18 -44t-48 -16t-47.5 15.5zM127 538q-14 0 -25.5 6.5t-18.5 17.5l-81 139q-9 14 -9 27q0 30 38 48q16 8 33 8q35 0 50 -40l57 -146q3 -7 3 -16q0 -12 -6.5 -22.5t-17.5 -16.5
q-9 -5 -23 -5z" />
    <glyph glyph-name="uni1EC9" unicode="&#x1ec9;" horiz-adv-x="258" 
d="M81.5 5.5q-17.5 15.5 -17.5 44.5v390q0 29 17.5 44.5t47.5 15.5t48 -16t18 -44v-390q0 -28 -18 -44t-48 -16t-47.5 15.5zM88.5 531.5q-15.5 9.5 -15.5 27.5v5q0 17 10.5 31t29.5 30q14 12 20.5 19.5t6.5 15.5q0 9 -6.5 15t-18.5 6q-10 0 -22 -6.5t-22 -17.5
q-11 -12 -28 -12q-15 0 -29 10q-16 12 -16 28q0 10 8 21q19 24 52.5 40t78.5 16q61 0 91.5 -23t30.5 -62q0 -20 -11.5 -35.5t-32.5 -34.5q-16 -14 -23 -22.5t-7 -17.5v-6q0 -18 -15.5 -27.5t-40.5 -9.5t-40.5 9.5z" />
    <glyph glyph-name="ij" unicode="&#x133;" horiz-adv-x="526" 
d="M68.5 570.5q-22.5 20.5 -22.5 53.5t22.5 53.5t59.5 20.5t60.5 -20.5t23.5 -53.5t-23.5 -53.5t-60.5 -20.5t-59.5 20.5zM336.5 570.5q-22.5 20.5 -22.5 53.5t22.5 53.5t59.5 20.5t60.5 -20.5t23.5 -53.5t-23.5 -53.5t-60.5 -20.5t-59.5 20.5zM81 6q-17 16 -17 44v390
q0 28 17 44t48 16q30 0 48 -16t18 -44v-390q0 -28 -18 -44t-48 -16q-31 0 -48 16zM213 -277q-17 15 -17 38t17 37.5t43 14.5q33 0 48.5 7t21.5 25.5t6 58.5v536q0 28 17 44t48 16q30 0 48 -16t18 -44v-536q0 -99 -51.5 -147.5t-155.5 -48.5q-26 0 -43 15z" />
    <glyph glyph-name="imacron" unicode="&#x12b;" horiz-adv-x="258" 
d="M81.5 5.5q-17.5 15.5 -17.5 44.5v390q0 29 17.5 44.5t47.5 15.5t48 -16t18 -44v-390q0 -28 -18 -44t-48 -16t-47.5 15.5zM-51 584q0 22 12.5 31.5t39.5 9.5h256q27 0 39.5 -9.5t12.5 -31.5q0 -40 -52 -40h-256q-52 0 -52 40z" />
    <glyph glyph-name="iogonek" unicode="&#x12f;" horiz-adv-x="258" 
d="M68.5 582.5q-22.5 20.5 -22.5 53.5t22.5 53.5t59.5 20.5t60.5 -20.5t23.5 -53.5t-23.5 -53.5t-60.5 -20.5t-59.5 20.5zM238 -138q0 -14 -14 -28q-40 -40 -104 -40q-57 0 -93.5 24t-36.5 74q0 38 18 69.5t59 67.5q-3 9 -3 21v390q0 28 17 44t48 16q30 0 48 -16t18 -44
v-390q0 -35 -28 -51l-20 -17q-30 -25 -41 -39.5t-11 -36.5q0 -16 11.5 -24t25.5 -8q27 0 43 15q12 11 26 11q13 0 24 -11q13 -13 13 -27z" />
    <glyph glyph-name="itilde" unicode="&#x129;" horiz-adv-x="258" 
d="M81.5 5.5q-17.5 15.5 -17.5 44.5v390q0 29 17.5 44.5t47.5 15.5t48 -16t18 -44v-390q0 -28 -18 -44t-48 -16t-47.5 15.5zM-58.5 579q-7.5 9 -7.5 22t5 23q18 41 45 62.5t69 21.5q27 0 49 -9.5t50 -26.5q4 -2 14.5 -8.5t18.5 -9.5t15 -3q13 0 22 7t17 25q16 32 41 32
q20 0 32.5 -10.5t12.5 -27.5q0 -13 -5 -23q-18 -41 -45 -62.5t-69 -21.5q-25 0 -45 8.5t-45 24.5q-17 12 -30 18t-27 6q-13 0 -22 -7t-17 -25q-16 -32 -41 -32q-8 0 -17 3q-13 4 -20.5 13z" />
    <glyph glyph-name="j" unicode="j" horiz-adv-x="346" 
d="M156.5 582.5q-22.5 20.5 -22.5 53.5t22.5 53.5t59.5 20.5t60.5 -20.5t23.5 -53.5t-23.5 -53.5t-60.5 -20.5t-59.5 20.5zM33 -277q-17 15 -17 38t17 37.5t43 14.5q33 0 48.5 7t21.5 25.5t6 58.5v536q0 28 17 44t48 16q30 0 48 -16t18 -44v-536q0 -99 -51.5 -147.5
t-155.5 -48.5q-26 0 -43 15z" />
    <glyph glyph-name="uni0237" unicode="&#x237;" horiz-adv-x="337" 
d="M37 -277.5q-17 14.5 -17 38.5t17 38t43 14q32 0 47.5 6t22 25t6.5 60v536q0 29 17.5 44.5t47.5 15.5t48 -16t18 -44v-536q0 -99 -51.5 -147.5t-155.5 -48.5q-26 0 -43 14.5z" />
    <glyph glyph-name="jcircumflex" unicode="&#x135;" horiz-adv-x="337" 
d="M37 -277.5q-17 14.5 -17 38.5t17 38t43 14q32 0 47.5 6t22 25t6.5 60v536q0 29 17.5 44.5t47.5 15.5t48 -16t18 -44v-536q0 -99 -51.5 -147.5t-155.5 -48.5q-26 0 -43 14.5zM47 584q0 19 15 37l105 126q21 24 51 24t51 -24l105 -126q15 -18 15 -37q0 -22 -21 -39
q-16 -12 -33 -12q-24 0 -45 27l-72 100l-72 -100q-21 -27 -45 -27q-17 0 -33 12q-21 17 -21 39z" />
    <glyph glyph-name="k" unicode="k" horiz-adv-x="595" 
d="M63 6q-17 16 -17 44v649q0 28 17 44t48 16q30 0 48 -16t18 -44v-398l292 188q22 14 40 14q29 0 42 -27q8 -18 8 -30q0 -26 -31 -45l-155 -96q88 -53 131.5 -112t53.5 -139q1 -4 1 -12q0 -25 -14.5 -38.5t-40.5 -13.5q-27 0 -44.5 11t-22.5 32q-15 58 -33.5 94t-48 62.5
t-79.5 54.5l-99 -68v-126q0 -28 -18 -44t-48 -16q-31 0 -48 16z" />
    <glyph glyph-name="uni0137" unicode="&#x137;" horiz-adv-x="595" 
d="M63 6q-17 16 -17 44v649q0 28 17 44t48 16q30 0 48 -16t18 -44v-398l292 188q22 14 40 14q29 0 42 -27q8 -18 8 -30q0 -26 -31 -45l-155 -96q88 -53 131.5 -112t53.5 -139q1 -4 1 -12q0 -25 -14.5 -38.5t-40.5 -13.5q-27 0 -44.5 11t-22.5 32q-15 58 -33.5 94t-48 62.5
t-79.5 54.5l-99 -68v-126q0 -28 -18 -44t-48 -16q-31 0 -48 16zM231 -296q0 15 21 36q26 26 37 61q-29 0 -46.5 17.5t-17.5 45.5q0 34 24.5 53.5t60.5 19.5q40 0 63 -24.5t23 -65.5q0 -34 -25 -76t-63 -72q-27 -22 -45 -22q-11 0 -24 11q-8 8 -8 16z" />
    <glyph glyph-name="kgreenlandic" unicode="&#x138;" horiz-adv-x="584" 
d="M63 6q-17 16 -17 44v390q0 28 17 44t48 16q30 0 48 -16t18 -44v-134l276 183q17 11 36 11q33 0 46 -27q9 -18 9 -32q0 -24 -30 -45l-150 -99q78 -37 120.5 -94.5t61.5 -147.5q2 -12 2 -16q0 -23 -14.5 -36t-39.5 -13q-57 0 -66 43q-11 54 -29 89t-49 62t-84 56l-89 -59
v-131q0 -28 -18 -44t-48 -16q-31 0 -48 16z" />
    <glyph glyph-name="l" unicode="l" horiz-adv-x="263" 
d="M83 6q-17 16 -17 44v649q0 28 17 44t48 16q30 0 48 -16t18 -44v-649q0 -28 -18 -44t-48 -16q-31 0 -48 16z" />
    <glyph glyph-name="lacute" unicode="&#x13a;" horiz-adv-x="263" 
d="M83 6q-17 16 -17 44v649q0 28 17 44t48 16q30 0 48 -16t18 -44v-649q0 -28 -18 -44t-48 -16q-31 0 -48 16zM102.5 838.5q-6.5 10.5 -6.5 22.5q0 9 3 16l57 146q15 40 50 40q17 0 33 -8q38 -18 38 -48q0 -13 -9 -27l-81 -139q-7 -11 -18.5 -17.5t-25.5 -6.5t-23 5
q-11 6 -17.5 16.5z" />
    <glyph glyph-name="lcaron" unicode="&#x13e;" horiz-adv-x="397" 
d="M83 6q-17 16 -17 44v649q0 28 17 44t48 16q30 0 48 -16t18 -44v-649q0 -28 -18 -44t-48 -16q-31 0 -48 16zM257 520q0 18 22 37q16 13 27 28.5t14 29.5q-27 -2 -44.5 16t-17.5 47q0 35 22.5 53.5t61.5 18.5t62 -25.5t23 -63.5q0 -36 -23.5 -74.5t-63.5 -71.5
q-26 -21 -50 -21q-18 0 -28 12q-5 5 -5 14z" />
    <glyph glyph-name="uni013C" unicode="&#x13c;" horiz-adv-x="263" 
d="M83 6q-17 16 -17 44v649q0 28 17 44t48 16q30 0 48 -16t18 -44v-649q0 -28 -18 -44t-48 -16q-31 0 -48 16zM53 -296q0 15 21 36q26 26 37 61q-29 0 -46.5 17.5t-17.5 45.5q0 34 24.5 53.5t60.5 19.5q40 0 63 -24.5t23 -65.5q0 -34 -25 -76t-63 -72q-27 -22 -45 -22
q-11 0 -24 11q-8 8 -8 16z" />
    <glyph glyph-name="ldot" unicode="&#x140;" horiz-adv-x="402" 
d="M83 6q-17 16 -17 44v649q0 28 17 44t48 16q30 0 48 -16t18 -44v-649q0 -28 -18 -44t-48 -16q-31 0 -48 16zM254 287q-23 22 -23 53q0 33 23 55.5t58 22.5t57.5 -23t22.5 -55q0 -31 -22.5 -53t-57.5 -22t-58 22z" />
    <glyph glyph-name="uni1E37" unicode="&#x1e37;" horiz-adv-x="263" 
d="M83 6q-17 16 -17 44v649q0 28 17 44t48 16q30 0 48 -16t18 -44v-649q0 -28 -18 -44t-48 -16q-31 0 -48 16zM72.5 -192q-21.5 20 -21.5 54q0 35 21.5 55t59.5 20q37 0 58.5 -20t21.5 -55q0 -34 -21.5 -54t-58.5 -20q-38 0 -59.5 20z" />
    <glyph glyph-name="uni1E39" unicode="&#x1e39;" horiz-adv-x="263" 
d="M83 6q-17 16 -17 44v649q0 28 17 44t48 16q30 0 48 -16t18 -44v-649q0 -28 -18 -44t-48 -16q-31 0 -48 16zM72.5 -192q-21.5 20 -21.5 54q0 35 21.5 55t59.5 20q37 0 58.5 -20t21.5 -55q0 -34 -21.5 -54t-58.5 -20q-38 0 -59.5 20zM-51 863q0 22 12.5 31.5t39.5 9.5h256
q27 0 39.5 -9.5t12.5 -31.5q0 -40 -52 -40h-256q-52 0 -52 40z" />
    <glyph glyph-name="uni1E3B" unicode="&#x1e3b;" horiz-adv-x="263" 
d="M83 6q-17 16 -17 44v649q0 28 17 44t48 16q30 0 48 -16t18 -44v-649q0 -28 -18 -44t-48 -16q-31 0 -48 16zM-48 -124q0 22 12.5 31.5t39.5 9.5h256q27 0 39.5 -9.5t12.5 -31.5q0 -40 -52 -40h-256q-52 0 -52 40z" />
    <glyph glyph-name="lslash" unicode="&#x142;" horiz-adv-x="413" 
d="M393 515q0 -24 -23 -41l-81 -57v-367q0 -28 -18 -44t-48 -16q-31 0 -48 16t-17 44v274l-48 -34q-18 -10 -35 -10q-25 0 -42 21q-13 16 -13 34q0 24 23 41l115 81v242q0 28 17 44t48 16q30 0 48 -16t18 -44v-149l14 10q18 10 35 10q25 0 42 -21q13 -16 13 -34z" />
    <glyph glyph-name="m" unicode="m" horiz-adv-x="810" 
d="M63 6q-17 16 -17 44v390q0 28 17 44t48 16q30 0 48 -16t18 -44v-24q23 40 58 62t76 22q42 0 76 -22.5t51 -61.5q71 84 161 84q80 0 125 -56t45 -156v-238q0 -28 -18 -44t-48 -16q-31 0 -48 16t-17 44v246q0 49 -17.5 74.5t-51.5 25.5q-29 0 -51 -16t-41 -51v-279
q0 -28 -18 -44t-48 -16q-31 0 -48 16t-17 44v225q0 121 -69 121q-47 0 -73.5 -37t-26.5 -102v-207q0 -28 -18 -44t-48 -16q-31 0 -48 16z" />
    <glyph glyph-name="uni1E43" unicode="&#x1e43;" horiz-adv-x="810" 
d="M63 6q-17 16 -17 44v390q0 28 17 44t48 16q30 0 48 -16t18 -44v-24q23 40 58 62t76 22q42 0 76 -22.5t51 -61.5q71 84 161 84q80 0 125 -56t45 -156v-238q0 -28 -18 -44t-48 -16q-31 0 -48 16t-17 44v246q0 49 -17.5 74.5t-51.5 25.5q-29 0 -51 -16t-41 -51v-279
q0 -28 -18 -44t-48 -16q-31 0 -48 16t-17 44v225q0 121 -69 121q-47 0 -73.5 -37t-26.5 -102v-207q0 -28 -18 -44t-48 -16q-31 0 -48 16zM364.5 -192q-21.5 20 -21.5 54q0 35 21.5 55t59.5 20q37 0 58.5 -20t21.5 -55q0 -34 -21.5 -54t-58.5 -20q-38 0 -59.5 20z" />
    <glyph glyph-name="n" unicode="n" horiz-adv-x="615" 
d="M63 6q-17 16 -17 44v390q0 29 16.5 44.5t46.5 15.5t47 -16t17 -44v-29q71 89 194 89q96 0 151.5 -60.5t55.5 -164.5v-225q0 -28 -18 -44t-48 -16q-31 0 -48 16t-17 44v225q0 57 -28 89t-78 32q-76 0 -118 -44.5t-42 -124.5v-177q0 -28 -18 -44t-48 -16q-31 0 -48 16z" />
    <glyph glyph-name="nacute" unicode="&#x144;" horiz-adv-x="615" 
d="M63 6q-17 16 -17 44v390q0 29 16.5 44.5t46.5 15.5t47 -16t17 -44v-29q71 89 194 89q96 0 151.5 -60.5t55.5 -164.5v-225q0 -28 -18 -44t-48 -16q-31 0 -48 16t-17 44v225q0 57 -28 89t-78 32q-76 0 -118 -44.5t-42 -124.5v-177q0 -28 -18 -44t-48 -16q-31 0 -48 16z
M281.5 579.5q-6.5 10.5 -6.5 22.5q0 9 3 16l57 146q15 40 50 40q17 0 33 -8q38 -18 38 -48q0 -13 -9 -27l-81 -139q-7 -11 -18.5 -17.5t-25.5 -6.5t-23 5q-11 6 -17.5 16.5z" />
    <glyph glyph-name="napostrophe" unicode="&#x149;" horiz-adv-x="775" 
d="M223 6q-17 16 -17 44v390q0 29 16.5 44.5t46.5 15.5t47 -16t17 -44v-29q71 89 194 89q96 0 151.5 -60.5t55.5 -164.5v-225q0 -28 -18 -44t-48 -16q-31 0 -48 16t-17 44v225q0 57 -28 89t-78 32q-76 0 -118 -44.5t-42 -124.5v-177q0 -28 -18 -44t-48 -16q-31 0 -48 16z
M45 423q0 18 22 37q16 13 27 28.5t14 29.5q-27 -2 -44.5 16t-17.5 47q0 35 22.5 53.5t61.5 18.5t62 -25.5t23 -63.5q0 -36 -23.5 -74.5t-63.5 -71.5q-26 -21 -50 -21q-18 0 -28 12q-5 5 -5 14z" />
    <glyph glyph-name="ncaron" unicode="&#x148;" horiz-adv-x="615" 
d="M63 6q-17 16 -17 44v390q0 29 16.5 44.5t46.5 15.5t47 -16t17 -44v-29q71 89 194 89q96 0 151.5 -60.5t55.5 -164.5v-225q0 -28 -18 -44t-48 -16q-31 0 -48 16t-17 44v225q0 57 -28 89t-78 32q-76 0 -118 -44.5t-42 -124.5v-177q0 -28 -18 -44t-48 -16q-31 0 -48 16z
M260 577l-105 126q-15 18 -15 37q0 23 21 39q17 12 33 12q24 0 45 -27l72 -100l72 100q21 27 45 27q17 0 33 -12q21 -16 21 -39q0 -19 -15 -37l-105 -126q-21 -24 -51 -24t-51 24z" />
    <glyph glyph-name="uni0146" unicode="&#x146;" horiz-adv-x="615" 
d="M63 6q-17 16 -17 44v390q0 29 16.5 44.5t46.5 15.5t47 -16t17 -44v-29q71 89 194 89q96 0 151.5 -60.5t55.5 -164.5v-225q0 -28 -18 -44t-48 -16q-31 0 -48 16t-17 44v225q0 57 -28 89t-78 32q-76 0 -118 -44.5t-42 -124.5v-177q0 -28 -18 -44t-48 -16q-31 0 -48 16z
M232 -296q0 15 21 36q26 26 37 61q-29 0 -46.5 17.5t-17.5 45.5q0 34 24.5 53.5t60.5 19.5q40 0 63 -24.5t23 -65.5q0 -34 -25 -76t-63 -72q-27 -22 -45 -22q-11 0 -24 11q-8 8 -8 16z" />
    <glyph glyph-name="uni1E45" unicode="&#x1e45;" horiz-adv-x="615" 
d="M63 6q-17 16 -17 44v390q0 29 16.5 44.5t46.5 15.5t47 -16t17 -44v-29q71 89 194 89q96 0 151.5 -60.5t55.5 -164.5v-225q0 -28 -18 -44t-48 -16q-31 0 -48 16t-17 44v225q0 57 -28 89t-78 32q-76 0 -118 -44.5t-42 -124.5v-177q0 -28 -18 -44t-48 -16q-31 0 -48 16z
M253 588.5q-23 21.5 -23 52.5q0 32 23 53.5t58 21.5q34 0 57 -21.5t23 -53.5q0 -31 -23 -52.5t-57 -21.5q-35 0 -58 21.5z" />
    <glyph glyph-name="uni1E47" unicode="&#x1e47;" horiz-adv-x="615" 
d="M63 6q-17 16 -17 44v390q0 29 16.5 44.5t46.5 15.5t47 -16t17 -44v-29q71 89 194 89q96 0 151.5 -60.5t55.5 -164.5v-225q0 -28 -18 -44t-48 -16q-31 0 -48 16t-17 44v225q0 57 -28 89t-78 32q-76 0 -118 -44.5t-42 -124.5v-177q0 -28 -18 -44t-48 -16q-31 0 -48 16z
M251.5 -192q-21.5 20 -21.5 54q0 35 21.5 55t59.5 20q37 0 58.5 -20t21.5 -55q0 -34 -21.5 -54t-58.5 -20q-38 0 -59.5 20z" />
    <glyph glyph-name="eng" unicode="&#x14b;" horiz-adv-x="615" 
d="M324 -277q-17 15 -17 38t17 37.5t43 14.5q33 0 48.5 7t21.5 25.5t6 58.5v371q0 57 -28 89t-78 32q-76 0 -118 -44.5t-42 -124.5v-177q0 -28 -18 -44t-48 -16q-31 0 -48 16t-17 44v390q0 29 16.5 44.5t46.5 15.5t47 -16t17 -44v-29q71 89 194 89q96 0 151.5 -60.5
t55.5 -164.5v-371q0 -99 -51.5 -147.5t-155.5 -48.5q-26 0 -43 15z" />
    <glyph glyph-name="uni1E49" unicode="&#x1e49;" horiz-adv-x="615" 
d="M63 6q-17 16 -17 44v390q0 29 16.5 44.5t46.5 15.5t47 -16t17 -44v-29q71 89 194 89q96 0 151.5 -60.5t55.5 -164.5v-225q0 -28 -18 -44t-48 -16q-31 0 -48 16t-17 44v225q0 57 -28 89t-78 32q-76 0 -118 -44.5t-42 -124.5v-177q0 -28 -18 -44t-48 -16q-31 0 -48 16z
M131 -124q0 22 12.5 31.5t39.5 9.5h256q27 0 39.5 -9.5t12.5 -31.5q0 -40 -52 -40h-256q-52 0 -52 40z" />
    <glyph glyph-name="ntilde" unicode="&#xf1;" horiz-adv-x="615" 
d="M63 6q-17 16 -17 44v390q0 29 16.5 44.5t46.5 15.5t47 -16t17 -44v-29q71 89 194 89q96 0 151.5 -60.5t55.5 -164.5v-225q0 -28 -18 -44t-48 -16q-31 0 -48 16t-17 44v225q0 57 -28 89t-78 32q-76 0 -118 -44.5t-42 -124.5v-177q0 -28 -18 -44t-48 -16q-31 0 -48 16z
M122.5 599q-7.5 9 -7.5 22t5 23q18 41 45 62.5t69 21.5q27 0 49 -9.5t50 -26.5q4 -2 14.5 -8.5t18.5 -9.5t15 -3q13 0 22 7t17 25q16 32 41 32q20 0 32.5 -10.5t12.5 -27.5q0 -13 -5 -23q-18 -41 -45 -62.5t-69 -21.5q-25 0 -45 8.5t-45 24.5q-17 12 -30 18t-27 6
q-13 0 -22 -7t-17 -25q-16 -32 -41 -32q-8 0 -17 3q-13 4 -20.5 13z" />
    <glyph glyph-name="o" unicode="o" horiz-adv-x="668" 
d="M179.5 21.5q-67.5 31.5 -105.5 89.5t-38 134t38 134t105.5 89.5t154.5 31.5t154.5 -31.5t105.5 -89.5t38 -134t-38 -134t-105.5 -89.5t-154.5 -31.5t-154.5 31.5zM455.5 134q44.5 40 44.5 111t-44.5 111t-121.5 40t-121.5 -40t-44.5 -111t44.5 -111t121.5 -40t121.5 40z
" />
    <glyph glyph-name="oacute" unicode="&#xf3;" horiz-adv-x="668" 
d="M179.5 21.5q-67.5 31.5 -105.5 89.5t-38 134t38 134t105.5 89.5t154.5 31.5t154.5 -31.5t105.5 -89.5t38 -134t-38 -134t-105.5 -89.5t-154.5 -31.5t-154.5 31.5zM455.5 134q44.5 40 44.5 111t-44.5 111t-121.5 40t-121.5 -40t-44.5 -111t44.5 -111t121.5 -40t121.5 40z
M304.5 579.5q-6.5 10.5 -6.5 22.5q0 9 3 16l57 146q15 40 50 40q17 0 33 -8q38 -18 38 -48q0 -13 -9 -27l-81 -139q-7 -11 -18.5 -17.5t-25.5 -6.5t-23 5q-11 6 -17.5 16.5z" />
    <glyph glyph-name="obreve" unicode="&#x14f;" horiz-adv-x="668" 
d="M179.5 21.5q-67.5 31.5 -105.5 89.5t-38 134t38 134t105.5 89.5t154.5 31.5t154.5 -31.5t105.5 -89.5t38 -134t-38 -134t-105.5 -89.5t-154.5 -31.5t-154.5 31.5zM455.5 134q44.5 40 44.5 111t-44.5 111t-121.5 40t-121.5 -40t-44.5 -111t44.5 -111t121.5 -40t121.5 40z
M193 602q-52 46 -52 124q0 28 16 43t45 15t45 -15t16 -43q0 -37 18.5 -57t52.5 -20t52.5 20t18.5 57q0 28 16 43t45 15t45 -15t16 -43q0 -78 -52 -124t-141 -46t-141 46z" />
    <glyph glyph-name="uni01D2" unicode="&#x1d2;" horiz-adv-x="668" 
d="M179.5 21.5q-67.5 31.5 -105.5 89.5t-38 134t38 134t105.5 89.5t154.5 31.5t154.5 -31.5t105.5 -89.5t38 -134t-38 -134t-105.5 -89.5t-154.5 -31.5t-154.5 31.5zM455.5 134q44.5 40 44.5 111t-44.5 111t-121.5 40t-121.5 -40t-44.5 -111t44.5 -111t121.5 -40t121.5 40z
M283 577l-105 126q-15 18 -15 37q0 23 21 39q17 12 33 12q24 0 45 -27l72 -100l72 100q21 27 45 27q17 0 33 -12q21 -16 21 -39q0 -19 -15 -37l-105 -126q-21 -24 -51 -24t-51 24z" />
    <glyph glyph-name="ocircumflex" unicode="&#xf4;" horiz-adv-x="668" 
d="M179.5 21.5q-67.5 31.5 -105.5 89.5t-38 134t38 134t105.5 89.5t154.5 31.5t154.5 -31.5t105.5 -89.5t38 -134t-38 -134t-105.5 -89.5t-154.5 -31.5t-154.5 31.5zM455.5 134q44.5 40 44.5 111t-44.5 111t-121.5 40t-121.5 -40t-44.5 -111t44.5 -111t121.5 -40t121.5 40z
M163 604q0 19 15 37l105 126q21 24 51 24t51 -24l105 -126q15 -18 15 -37q0 -22 -21 -39q-17 -12 -33 -12q-24 0 -45 27l-72 100l-72 -100q-21 -27 -45 -27q-16 0 -33 12q-21 17 -21 39z" />
    <glyph glyph-name="uni1ED1" unicode="&#x1ed1;" horiz-adv-x="668" 
d="M179.5 21.5q-67.5 31.5 -105.5 89.5t-38 134t38 134t105.5 89.5t154.5 31.5t154.5 -31.5t105.5 -89.5t38 -134t-38 -134t-105.5 -89.5t-154.5 -31.5t-154.5 31.5zM455.5 134q44.5 40 44.5 111t-44.5 111t-121.5 40t-121.5 -40t-44.5 -111t44.5 -111t121.5 -40t121.5 40z
M423 769q0 13 6 23l64 108q8 14 20.5 21t25.5 7q18 0 34 -11q11 -8 17 -19t6 -23q0 -16 -12 -31l-84 -97q-16 -18 -36 -18q-14 0 -26 9q-15 12 -15 31zM162 604q0 18 16 36l105 116q21 24 51 24t51 -24l105 -116q16 -18 16 -36q0 -23 -22 -40q-15 -12 -32 -12q-25 0 -46 27
l-72 90l-72 -90q-21 -27 -46 -27q-17 0 -32 12q-22 17 -22 40z" />
    <glyph glyph-name="uni1ED9" unicode="&#x1ed9;" horiz-adv-x="668" 
d="M179.5 21.5q-67.5 31.5 -105.5 89.5t-38 134t38 134t105.5 89.5t154.5 31.5t154.5 -31.5t105.5 -89.5t38 -134t-38 -134t-105.5 -89.5t-154.5 -31.5t-154.5 31.5zM455.5 134q44.5 40 44.5 111t-44.5 111t-121.5 40t-121.5 -40t-44.5 -111t44.5 -111t121.5 -40t121.5 40z
M274.5 -192q-21.5 20 -21.5 54q0 35 21.5 55t59.5 20q37 0 58.5 -20t21.5 -55q0 -34 -21.5 -54t-58.5 -20q-38 0 -59.5 20zM163 604q0 19 15 37l105 126q21 24 51 24t51 -24l105 -126q15 -18 15 -37q0 -22 -21 -39q-17 -12 -33 -12q-24 0 -45 27l-72 100l-72 -100
q-21 -27 -45 -27q-16 0 -33 12q-21 17 -21 39z" />
    <glyph glyph-name="uni1ED3" unicode="&#x1ed3;" horiz-adv-x="668" 
d="M179.5 21.5q-67.5 31.5 -105.5 89.5t-38 134t38 134t105.5 89.5t154.5 31.5t154.5 -31.5t105.5 -89.5t38 -134t-38 -134t-105.5 -89.5t-154.5 -31.5t-154.5 31.5zM455.5 134q44.5 40 44.5 111t-44.5 111t-121.5 40t-121.5 -40t-44.5 -111t44.5 -111t121.5 -40t121.5 40z
M485 729q-20 0 -36 18l-84 97q-12 15 -12 31q0 12 6 23t17 19q16 11 34 11q13 0 25.5 -7t20.5 -21l64 -108q6 -10 6 -23q0 -19 -15 -31q-12 -9 -26 -9zM162 604q0 18 16 36l105 116q21 24 51 24t51 -24l105 -116q16 -18 16 -36q0 -23 -22 -40q-15 -12 -32 -12q-25 0 -46 27
l-72 90l-72 -90q-21 -27 -46 -27q-17 0 -32 12q-22 17 -22 40z" />
    <glyph glyph-name="uni1ED5" unicode="&#x1ed5;" horiz-adv-x="668" 
d="M179.5 21.5q-67.5 31.5 -105.5 89.5t-38 134t38 134t105.5 89.5t154.5 31.5t154.5 -31.5t105.5 -89.5t38 -134t-38 -134t-105.5 -89.5t-154.5 -31.5t-154.5 31.5zM455.5 134q44.5 40 44.5 111t-44.5 111t-121.5 40t-121.5 -40t-44.5 -111t44.5 -111t121.5 -40t121.5 40z
M438.5 726.5q-13.5 8.5 -13.5 23.5v4q0 15 8.5 26t25.5 27q12 10 18 17.5t6 14.5q0 8 -5.5 13t-15.5 5q-17 0 -38 -21q-12 -12 -27 -12q-12 0 -24 9q-14 11 -14 25q0 9 7 19q15 21 45.5 35t69.5 14q53 0 79.5 -20t26.5 -53q0 -18 -10 -31.5t-29 -30.5q-13 -11 -19.5 -19
t-6.5 -17v-5q0 -15 -13 -23.5t-35 -8.5t-35.5 8.5zM162 604q0 18 16 36l105 116q21 24 51 24t51 -24l105 -116q16 -18 16 -36q0 -23 -22 -40q-15 -12 -32 -12q-25 0 -46 27l-72 90l-72 -90q-21 -27 -46 -27q-17 0 -32 12q-22 17 -22 40z" />
    <glyph glyph-name="uni1ED7" unicode="&#x1ed7;" horiz-adv-x="668" 
d="M179.5 21.5q-67.5 31.5 -105.5 89.5t-38 134t38 134t105.5 89.5t154.5 31.5t154.5 -31.5t105.5 -89.5t38 -134t-38 -134t-105.5 -89.5t-154.5 -31.5t-154.5 31.5zM455.5 134q44.5 40 44.5 111t-44.5 111t-121.5 40t-121.5 -40t-44.5 -111t44.5 -111t121.5 -40t121.5 40z
M165.5 797.5q-11.5 9.5 -11.5 25.5q0 9 5 22q16 38 42 58.5t66 20.5q26 0 46 -8.5t48 -25.5q18 -11 27.5 -15.5t18.5 -4.5q13 0 21 7t16 23q14 30 39 30q19 0 30.5 -10t11.5 -26q0 -9 -5 -21q-17 -39 -42.5 -59.5t-65.5 -20.5q-24 0 -42.5 8t-41.5 23q-19 12 -30.5 17.5
t-24.5 5.5t-21 -6.5t-16 -23.5q-15 -29 -39 -29q-20 0 -31.5 9.5zM162 604q0 18 16 36l105 116q21 24 51 24t51 -24l105 -116q16 -18 16 -36q0 -23 -22 -40q-15 -12 -32 -12q-25 0 -46 27l-72 90l-72 -90q-21 -27 -46 -27q-17 0 -32 12q-22 17 -22 40z" />
    <glyph glyph-name="odieresis" unicode="&#xf6;" horiz-adv-x="668" 
d="M179.5 21.5q-67.5 31.5 -105.5 89.5t-38 134t38 134t105.5 89.5t154.5 31.5t154.5 -31.5t105.5 -89.5t38 -134t-38 -134t-105.5 -89.5t-154.5 -31.5t-154.5 31.5zM455.5 134q44.5 40 44.5 111t-44.5 111t-121.5 40t-121.5 -40t-44.5 -111t44.5 -111t121.5 -40t121.5 40z
M166 595.5q-20 19.5 -20 48.5t19.5 49t51.5 20q31 0 50.5 -19.5t19.5 -49.5q0 -28 -19.5 -48t-50.5 -20t-51 19.5zM402 595.5q-20 19.5 -20 48.5t19.5 49t51.5 20q31 0 50.5 -19.5t19.5 -49.5q0 -28 -19.5 -48t-50.5 -20t-51 19.5z" />
    <glyph glyph-name="uni1ECD" unicode="&#x1ecd;" horiz-adv-x="668" 
d="M179.5 21.5q-67.5 31.5 -105.5 89.5t-38 134t38 134t105.5 89.5t154.5 31.5t154.5 -31.5t105.5 -89.5t38 -134t-38 -134t-105.5 -89.5t-154.5 -31.5t-154.5 31.5zM455.5 134q44.5 40 44.5 111t-44.5 111t-121.5 40t-121.5 -40t-44.5 -111t44.5 -111t121.5 -40t121.5 40z
M274.5 -192q-21.5 20 -21.5 54q0 35 21.5 55t59.5 20q37 0 58.5 -20t21.5 -55q0 -34 -21.5 -54t-58.5 -20q-38 0 -59.5 20z" />
    <glyph glyph-name="ograve" unicode="&#xf2;" horiz-adv-x="668" 
d="M179.5 21.5q-67.5 31.5 -105.5 89.5t-38 134t38 134t105.5 89.5t154.5 31.5t154.5 -31.5t105.5 -89.5t38 -134t-38 -134t-105.5 -89.5t-154.5 -31.5t-154.5 31.5zM455.5 134q44.5 40 44.5 111t-44.5 111t-121.5 40t-121.5 -40t-44.5 -111t44.5 -111t121.5 -40t121.5 40z
M349 558q-14 0 -25.5 6.5t-18.5 17.5l-81 139q-9 14 -9 27q0 30 38 48q16 8 33 8q35 0 50 -40l57 -146q3 -7 3 -16q0 -12 -6.5 -22.5t-17.5 -16.5q-9 -5 -23 -5z" />
    <glyph glyph-name="uni1ECF" unicode="&#x1ecf;" horiz-adv-x="668" 
d="M179.5 21.5q-67.5 31.5 -105.5 89.5t-38 134t38 134t105.5 89.5t154.5 31.5t154.5 -31.5t105.5 -89.5t38 -134t-38 -134t-105.5 -89.5t-154.5 -31.5t-154.5 31.5zM455.5 134q44.5 40 44.5 111t-44.5 111t-121.5 40t-121.5 -40t-44.5 -111t44.5 -111t121.5 -40t121.5 40z
M293.5 551.5q-15.5 9.5 -15.5 27.5v5q0 17 10.5 31t29.5 30q14 12 20.5 19.5t6.5 15.5q0 9 -6.5 15t-18.5 6q-10 0 -22 -6.5t-22 -17.5q-11 -12 -28 -12q-15 0 -29 10q-16 12 -16 28q0 10 8 21q19 24 52.5 40t78.5 16q61 0 91.5 -23t30.5 -62q0 -20 -11.5 -35.5t-32.5 -34.5
q-16 -14 -23 -22.5t-7 -17.5v-6q0 -18 -15.5 -27.5t-40.5 -9.5t-40.5 9.5z" />
    <glyph glyph-name="ohorn" unicode="&#x1a1;" horiz-adv-x="668" 
d="M706.5 383.5q-32.5 -40.5 -88.5 -54.5q14 -40 14 -84q0 -76 -38 -134t-105.5 -89.5t-154.5 -31.5t-154.5 31.5t-105.5 89.5t-38 134t38 134t105.5 89.5t154.5 31.5q76 0 137.5 -24t100.5 -68h3q61 8 61 74q0 52 49 52q26 0 40 -13.5t14 -38.5q0 -58 -32.5 -98.5z
M455.5 134q44.5 40 44.5 111t-44.5 111t-121.5 40t-121.5 -40t-44.5 -111t44.5 -111t121.5 -40t121.5 40z" />
    <glyph glyph-name="uni1EDB" unicode="&#x1edb;" horiz-adv-x="668" 
d="M706.5 383.5q-32.5 -40.5 -88.5 -54.5q14 -40 14 -84q0 -76 -38 -134t-105.5 -89.5t-154.5 -31.5t-154.5 31.5t-105.5 89.5t-38 134t38 134t105.5 89.5t154.5 31.5q76 0 137.5 -24t100.5 -68h3q61 8 61 74q0 52 49 52q26 0 40 -13.5t14 -38.5q0 -58 -32.5 -98.5z
M455.5 134q44.5 40 44.5 111t-44.5 111t-121.5 40t-121.5 -40t-44.5 -111t44.5 -111t121.5 -40t121.5 40zM304.5 579.5q-6.5 10.5 -6.5 22.5q0 9 3 16l57 146q15 40 50 40q17 0 33 -8q38 -18 38 -48q0 -13 -9 -27l-81 -139q-7 -11 -18.5 -17.5t-25.5 -6.5t-23 5
q-11 6 -17.5 16.5z" />
    <glyph glyph-name="uni1EE3" unicode="&#x1ee3;" horiz-adv-x="668" 
d="M706.5 383.5q-32.5 -40.5 -88.5 -54.5q14 -40 14 -84q0 -76 -38 -134t-105.5 -89.5t-154.5 -31.5t-154.5 31.5t-105.5 89.5t-38 134t38 134t105.5 89.5t154.5 31.5q76 0 137.5 -24t100.5 -68h3q61 8 61 74q0 52 49 52q26 0 40 -13.5t14 -38.5q0 -58 -32.5 -98.5z
M455.5 134q44.5 40 44.5 111t-44.5 111t-121.5 40t-121.5 -40t-44.5 -111t44.5 -111t121.5 -40t121.5 40zM274.5 -192q-21.5 20 -21.5 54q0 35 21.5 55t59.5 20q37 0 58.5 -20t21.5 -55q0 -34 -21.5 -54t-58.5 -20q-38 0 -59.5 20z" />
    <glyph glyph-name="uni1EDD" unicode="&#x1edd;" horiz-adv-x="668" 
d="M706.5 383.5q-32.5 -40.5 -88.5 -54.5q14 -40 14 -84q0 -76 -38 -134t-105.5 -89.5t-154.5 -31.5t-154.5 31.5t-105.5 89.5t-38 134t38 134t105.5 89.5t154.5 31.5q76 0 137.5 -24t100.5 -68h3q61 8 61 74q0 52 49 52q26 0 40 -13.5t14 -38.5q0 -58 -32.5 -98.5z
M455.5 134q44.5 40 44.5 111t-44.5 111t-121.5 40t-121.5 -40t-44.5 -111t44.5 -111t121.5 -40t121.5 40zM332 558q-14 0 -25.5 6.5t-18.5 17.5l-81 139q-9 14 -9 27q0 30 38 48q16 8 33 8q35 0 50 -40l57 -146q3 -7 3 -16q0 -12 -6.5 -22.5t-17.5 -16.5q-9 -5 -23 -5z" />
    <glyph glyph-name="uni1EDF" unicode="&#x1edf;" horiz-adv-x="668" 
d="M706.5 383.5q-32.5 -40.5 -88.5 -54.5q14 -40 14 -84q0 -76 -38 -134t-105.5 -89.5t-154.5 -31.5t-154.5 31.5t-105.5 89.5t-38 134t38 134t105.5 89.5t154.5 31.5q76 0 137.5 -24t100.5 -68h3q61 8 61 74q0 52 49 52q26 0 40 -13.5t14 -38.5q0 -58 -32.5 -98.5z
M455.5 134q44.5 40 44.5 111t-44.5 111t-121.5 40t-121.5 -40t-44.5 -111t44.5 -111t121.5 -40t121.5 40zM293.5 551.5q-15.5 9.5 -15.5 27.5v5q0 17 10.5 31t29.5 30q14 12 20.5 19.5t6.5 15.5q0 9 -6.5 15t-18.5 6q-10 0 -22 -6.5t-22 -17.5q-11 -12 -28 -12q-15 0 -29 10
q-16 12 -16 28q0 10 8 21q19 24 52.5 40t78.5 16q61 0 91.5 -23t30.5 -62q0 -20 -11.5 -35.5t-32.5 -34.5q-16 -14 -23 -22.5t-7 -17.5v-6q0 -18 -15.5 -27.5t-40.5 -9.5t-40.5 9.5z" />
    <glyph glyph-name="uni1EE1" unicode="&#x1ee1;" horiz-adv-x="668" 
d="M706.5 383.5q-32.5 -40.5 -88.5 -54.5q14 -40 14 -84q0 -76 -38 -134t-105.5 -89.5t-154.5 -31.5t-154.5 31.5t-105.5 89.5t-38 134t38 134t105.5 89.5t154.5 31.5q76 0 137.5 -24t100.5 -68h3q61 8 61 74q0 52 49 52q26 0 40 -13.5t14 -38.5q0 -58 -32.5 -98.5z
M455.5 134q44.5 40 44.5 111t-44.5 111t-121.5 40t-121.5 -40t-44.5 -111t44.5 -111t121.5 -40t121.5 40zM146.5 599q-7.5 9 -7.5 22t5 23q18 41 45 62.5t69 21.5q27 0 49 -9.5t50 -26.5q4 -2 14.5 -8.5t18.5 -9.5t15 -3q13 0 22 7t17 25q16 32 41 32q20 0 32.5 -10.5
t12.5 -27.5q0 -13 -5 -23q-18 -41 -45 -62.5t-69 -21.5q-25 0 -45 8.5t-45 24.5q-17 12 -30 18t-27 6q-13 0 -22 -7t-17 -25q-16 -32 -41 -32q-8 0 -17 3q-13 4 -20.5 13z" />
    <glyph glyph-name="ohungarumlaut" unicode="&#x151;" horiz-adv-x="668" 
d="M179.5 21.5q-67.5 31.5 -105.5 89.5t-38 134t38 134t105.5 89.5t154.5 31.5t154.5 -31.5t105.5 -89.5t38 -134t-38 -134t-105.5 -89.5t-154.5 -31.5t-154.5 31.5zM455.5 134q44.5 40 44.5 111t-44.5 111t-121.5 40t-121.5 -40t-44.5 -111t44.5 -111t121.5 -40t121.5 40z
M393 602q0 16 10 35l71 132q18 34 52 34q17 0 35 -9q16 -8 25 -20t9 -26q0 -15 -12 -32l-95 -130q-19 -27 -46 -27q-13 0 -26 7q-23 12 -23 36zM224 601q0 17 9 36l57 133q13 33 52 33q16 0 35 -8q32 -13 32 -45q0 -17 -10 -33l-81 -131q-8 -13 -20 -20t-25 -7q-14 0 -27 7
q-22 12 -22 35z" />
    <glyph glyph-name="omacron" unicode="&#x14d;" horiz-adv-x="668" 
d="M179.5 21.5q-67.5 31.5 -105.5 89.5t-38 134t38 134t105.5 89.5t154.5 31.5t154.5 -31.5t105.5 -89.5t38 -134t-38 -134t-105.5 -89.5t-154.5 -31.5t-154.5 31.5zM455.5 134q44.5 40 44.5 111t-44.5 111t-121.5 40t-121.5 -40t-44.5 -111t44.5 -111t121.5 -40t121.5 40z
M151 604q0 22 12.5 31.5t39.5 9.5h256q27 0 39.5 -9.5t12.5 -31.5q0 -40 -52 -40h-256q-52 0 -52 40z" />
    <glyph glyph-name="oslash" unicode="&#xf8;" horiz-adv-x="676" 
d="M601 374.5q35 -56.5 35 -129.5q0 -76 -38 -134t-105.5 -89.5t-154.5 -31.5q-26 0 -50 3l-13 -28q-17 -38 -53 -38q-14 0 -29 6q-35 15 -35 44q0 15 7 29l9 20q-63 32 -98.5 88.5t-35.5 130.5q0 76 38 134t105.5 89.5t154.5 31.5q26 0 52 -3l12 27q17 38 53 38q14 0 29 -6
q35 -14 35 -44q0 -15 -7 -29l-9 -20q63 -32 98 -88.5zM220 125l125 275h-7q-79 0 -125 -41t-46 -114q0 -78 53 -120zM463 131q46 41 46 114q0 76 -52 119l-125 -274h6q79 0 125 41z" />
    <glyph glyph-name="oslashacute" unicode="&#x1ff;" horiz-adv-x="676" 
d="M601 374.5q35 -56.5 35 -129.5q0 -76 -38 -134t-105.5 -89.5t-154.5 -31.5q-26 0 -50 3l-13 -28q-17 -38 -53 -38q-14 0 -29 6q-35 15 -35 44q0 15 7 29l9 20q-63 32 -98.5 88.5t-35.5 130.5q0 76 38 134t105.5 89.5t154.5 31.5q26 0 52 -3l12 27q17 38 53 38q14 0 29 -6
q35 -14 35 -44q0 -15 -7 -29l-9 -20q63 -32 98 -88.5zM220 125l125 275h-7q-79 0 -125 -41t-46 -114q0 -78 53 -120zM463 131q46 41 46 114q0 76 -52 119l-125 -274h6q79 0 125 41zM308.5 559.5q-6.5 10.5 -6.5 22.5q0 9 3 16l57 146q15 40 50 40q17 0 33 -8q38 -18 38 -48
q0 -13 -9 -27l-81 -139q-7 -11 -18.5 -17.5t-25.5 -6.5t-23 5q-11 6 -17.5 16.5z" />
    <glyph glyph-name="otilde" unicode="&#xf5;" horiz-adv-x="668" 
d="M179.5 21.5q-67.5 31.5 -105.5 89.5t-38 134t38 134t105.5 89.5t154.5 31.5t154.5 -31.5t105.5 -89.5t38 -134t-38 -134t-105.5 -89.5t-154.5 -31.5t-154.5 31.5zM455.5 134q44.5 40 44.5 111t-44.5 111t-121.5 40t-121.5 -40t-44.5 -111t44.5 -111t121.5 -40t121.5 40z
M145.5 599q-7.5 9 -7.5 22t5 23q18 41 45 62.5t69 21.5q27 0 49 -9.5t50 -26.5q4 -2 14.5 -8.5t18.5 -9.5t15 -3q13 0 22 7t17 25q16 32 41 32q20 0 32.5 -10.5t12.5 -27.5q0 -13 -5 -23q-18 -41 -45 -62.5t-69 -21.5q-25 0 -45 8.5t-45 24.5q-17 12 -30 18t-27 6
q-13 0 -22 -7t-17 -25q-16 -32 -41 -32q-8 0 -17 3q-13 4 -20.5 13z" />
    <glyph glyph-name="oe" unicode="&#x153;" horiz-adv-x="1092" 
d="M119.5 58q-79.5 68 -79.5 187t79.5 187t218.5 68q67 0 125 -23t101 -66q35 42 91 65.5t120 23.5q82 0 144.5 -24.5t97.5 -69t35 -102.5q0 -49 -30.5 -75t-86.5 -26h-312q1 -50 45 -80t117 -30q81 0 142 40q29 20 50 20q18 0 34 -16q17 -17 17 -38q0 -24 -20 -38
q-44 -34 -101.5 -52t-121.5 -18q-67 0 -124.5 23.5t-95.5 65.5q-44 -44 -102 -67t-125 -23q-139 0 -218.5 68zM893 296q17 0 24 6.5t7 21.5q0 35 -39 54.5t-110 19.5q-68 0 -109 -28t-41 -74h268zM459.5 134.5q44.5 40.5 44.5 110.5t-44.5 110.5t-121.5 40.5t-121.5 -40.5
t-44.5 -110.5t44.5 -110.5t121.5 -40.5t121.5 40.5z" />
    <glyph glyph-name="p" unicode="p" horiz-adv-x="666" 
d="M63 -283q-17 16 -17 44v679q0 28 17 44t48 16q30 0 48 -16t18 -44v-20q43 42 89.5 61t105.5 19q78 0 136.5 -31t90 -88.5t31.5 -135.5q0 -77 -32 -135t-91 -89t-139 -31q-60 0 -105 18.5t-85 59.5l-1 -307q0 -28 -18 -44t-48 -16q-31 0 -48 16zM456.5 133.5
q41.5 39.5 41.5 111.5t-41.5 111.5t-115.5 39.5q-77 0 -120.5 -40.5t-43.5 -110.5t43.5 -110.5t120.5 -40.5q74 0 115.5 39.5z" />
    <glyph glyph-name="thorn" unicode="&#xfe;" horiz-adv-x="674" 
d="M67 -283q-17 16 -17 44v968q0 28 17 44t48 16q30 0 48 -16t18 -44l1 -307q35 37 82 57.5t99 20.5q127 0 199 -68t72 -187q0 -120 -71.5 -187.5t-199.5 -67.5q-52 0 -99 20.5t-82 57.5l-1 -307q0 -28 -18 -44t-48 -16q-31 0 -48 16zM461 134q41 40 41 111t-41 111t-114 40
q-78 0 -122 -40t-44 -111t44 -111t122 -40q73 0 114 40z" />
    <glyph glyph-name="q" unicode="q" horiz-adv-x="666" 
d="M507 -283q-18 16 -18 44l-1 307q-32 -38 -81.5 -58t-109.5 -20q-123 0 -192 67.5t-69 187.5t70.5 187.5t196.5 67.5q112 0 186 -80v20q0 28 18 44t48 16q31 0 48 -16t17 -44v-679q0 -28 -17 -44t-48 -16q-30 0 -48 16zM445 134q44 40 44 111t-44 111t-122 40
q-73 0 -114 -40t-41 -111t41 -111t114 -40q78 0 122 40z" />
    <glyph glyph-name="r" unicode="r" horiz-adv-x="440" 
d="M63 6q-17 16 -17 44v390q0 29 16.5 44.5t46.5 15.5t47 -16t17 -44v-33q31 40 72.5 61.5t89.5 21.5h22q32 0 49.5 -13.5t17.5 -38.5t-17.5 -38.5t-49.5 -13.5h-34q-67 0 -106.5 -42.5t-39.5 -116.5v-177q0 -28 -18 -44t-48 -16q-31 0 -48 16z" />
    <glyph glyph-name="racute" unicode="&#x155;" horiz-adv-x="440" 
d="M63 6q-17 16 -17 44v390q0 29 16.5 44.5t46.5 15.5t47 -16t17 -44v-33q31 40 72.5 61.5t89.5 21.5h22q32 0 49.5 -13.5t17.5 -38.5t-17.5 -38.5t-49.5 -13.5h-34q-67 0 -106.5 -42.5t-39.5 -116.5v-177q0 -28 -18 -44t-48 -16q-31 0 -48 16zM203.5 579.5
q-6.5 10.5 -6.5 22.5q0 9 3 16l57 146q15 40 50 40q17 0 33 -8q38 -18 38 -48q0 -13 -9 -27l-81 -139q-7 -11 -18.5 -17.5t-25.5 -6.5t-23 5q-11 6 -17.5 16.5z" />
    <glyph glyph-name="rcaron" unicode="&#x159;" horiz-adv-x="440" 
d="M63 6q-17 16 -17 44v390q0 29 16.5 44.5t46.5 15.5t47 -16t17 -44v-33q31 40 72.5 61.5t89.5 21.5h22q32 0 49.5 -13.5t17.5 -38.5t-17.5 -38.5t-49.5 -13.5h-34q-67 0 -106.5 -42.5t-39.5 -116.5v-177q0 -28 -18 -44t-48 -16q-31 0 -48 16zM182 577l-105 126
q-15 18 -15 37q0 23 21 39q17 12 33 12q24 0 45 -27l72 -100l72 100q21 27 45 27q17 0 33 -12q21 -16 21 -39q0 -19 -15 -37l-105 -126q-21 -24 -51 -24t-51 24z" />
    <glyph glyph-name="uni0157" unicode="&#x157;" horiz-adv-x="440" 
d="M63 6q-17 16 -17 44v390q0 29 16.5 44.5t46.5 15.5t47 -16t17 -44v-33q31 40 72.5 61.5t89.5 21.5h22q32 0 49.5 -13.5t17.5 -38.5t-17.5 -38.5t-49.5 -13.5h-34q-67 0 -106.5 -42.5t-39.5 -116.5v-177q0 -28 -18 -44t-48 -16q-31 0 -48 16zM32 -296q0 15 21 36
q26 26 37 61q-29 0 -46.5 17.5t-17.5 45.5q0 34 24.5 53.5t60.5 19.5q40 0 63 -24.5t23 -65.5q0 -34 -25 -76t-63 -72q-27 -22 -45 -22q-11 0 -24 11q-8 8 -8 16z" />
    <glyph glyph-name="uni1E5B" unicode="&#x1e5b;" horiz-adv-x="440" 
d="M63 6q-17 16 -17 44v390q0 29 16.5 44.5t46.5 15.5t47 -16t17 -44v-33q31 40 72.5 61.5t89.5 21.5h22q32 0 49.5 -13.5t17.5 -38.5t-17.5 -38.5t-49.5 -13.5h-34q-67 0 -106.5 -42.5t-39.5 -116.5v-177q0 -28 -18 -44t-48 -16q-31 0 -48 16zM51.5 -192q-21.5 20 -21.5 54
q0 35 21.5 55t59.5 20q37 0 58.5 -20t21.5 -55q0 -34 -21.5 -54t-58.5 -20q-38 0 -59.5 20z" />
    <glyph glyph-name="uni1E5D" unicode="&#x1e5d;" horiz-adv-x="440" 
d="M63 6q-17 16 -17 44v390q0 29 16.5 44.5t46.5 15.5t47 -16t17 -44v-33q31 40 72.5 61.5t89.5 21.5h22q32 0 49.5 -13.5t17.5 -38.5t-17.5 -38.5t-49.5 -13.5h-34q-67 0 -106.5 -42.5t-39.5 -116.5v-177q0 -28 -18 -44t-48 -16q-31 0 -48 16zM51.5 -192q-21.5 20 -21.5 54
q0 35 21.5 55t59.5 20q37 0 58.5 -20t21.5 -55q0 -34 -21.5 -54t-58.5 -20q-38 0 -59.5 20zM50 604q0 22 12.5 31.5t39.5 9.5h256q27 0 39.5 -9.5t12.5 -31.5q0 -40 -52 -40h-256q-52 0 -52 40z" />
    <glyph glyph-name="uni1E5F" unicode="&#x1e5f;" horiz-adv-x="440" 
d="M63 6q-17 16 -17 44v390q0 29 16.5 44.5t46.5 15.5t47 -16t17 -44v-33q31 40 72.5 61.5t89.5 21.5h22q32 0 49.5 -13.5t17.5 -38.5t-17.5 -38.5t-49.5 -13.5h-34q-67 0 -106.5 -42.5t-39.5 -116.5v-177q0 -28 -18 -44t-48 -16q-31 0 -48 16zM-69 -124q0 22 12.5 31.5
t39.5 9.5h256q27 0 39.5 -9.5t12.5 -31.5q0 -40 -52 -40h-256q-52 0 -52 40z" />
    <glyph glyph-name="s" unicode="s" horiz-adv-x="546" 
d="M52 83q-16 21 -16 38q0 24 25 42q17 11 33 11q22 0 41 -19q34 -34 66.5 -48.5t80.5 -14.5q41 0 69 11t28 27q0 20 -23 34t-93 36q-110 34 -156 71.5t-46 93.5q0 63 54 99t149 36q73 0 132 -22t86 -59q13 -17 13 -34q0 -24 -24 -39q-17 -11 -35 -11q-29 0 -53 24
q-20 19 -51.5 29t-68.5 10q-70 0 -70 -33q0 -13 11 -23t39.5 -21t89.5 -30q98 -30 137.5 -66t39.5 -95q0 -63 -58 -101.5t-163 -38.5q-161 0 -237 93z" />
    <glyph glyph-name="sacute" unicode="&#x15b;" horiz-adv-x="546" 
d="M52 83q-16 21 -16 38q0 24 25 42q17 11 33 11q22 0 41 -19q34 -34 66.5 -48.5t80.5 -14.5q41 0 69 11t28 27q0 20 -23 34t-93 36q-110 34 -156 71.5t-46 93.5q0 63 54 99t149 36q73 0 132 -22t86 -59q13 -17 13 -34q0 -24 -24 -39q-17 -11 -35 -11q-29 0 -53 24
q-20 19 -51.5 29t-68.5 10q-70 0 -70 -33q0 -13 11 -23t39.5 -21t89.5 -30q98 -30 137.5 -66t39.5 -95q0 -63 -58 -101.5t-163 -38.5q-161 0 -237 93zM246.5 579.5q-6.5 10.5 -6.5 22.5q0 9 3 16l57 146q15 40 50 40q17 0 33 -8q38 -18 38 -48q0 -13 -9 -27l-81 -139
q-7 -11 -18.5 -17.5t-25.5 -6.5t-23 5q-11 6 -17.5 16.5z" />
    <glyph glyph-name="scaron" unicode="&#x161;" horiz-adv-x="546" 
d="M52 83q-16 21 -16 38q0 24 25 42q17 11 33 11q22 0 41 -19q34 -34 66.5 -48.5t80.5 -14.5q41 0 69 11t28 27q0 20 -23 34t-93 36q-110 34 -156 71.5t-46 93.5q0 63 54 99t149 36q73 0 132 -22t86 -59q13 -17 13 -34q0 -24 -24 -39q-17 -11 -35 -11q-29 0 -53 24
q-20 19 -51.5 29t-68.5 10q-70 0 -70 -33q0 -13 11 -23t39.5 -21t89.5 -30q98 -30 137.5 -66t39.5 -95q0 -63 -58 -101.5t-163 -38.5q-161 0 -237 93zM225 577l-105 126q-15 18 -15 37q0 23 21 39q17 12 33 12q24 0 45 -27l72 -100l72 100q21 27 45 27q17 0 33 -12
q21 -16 21 -39q0 -19 -15 -37l-105 -126q-21 -24 -51 -24t-51 24z" />
    <glyph glyph-name="scedilla" unicode="&#x15f;" horiz-adv-x="546" 
d="M331 -13l-18 -34q42 -3 66.5 -24.5t24.5 -54.5q0 -38 -29 -65t-86 -27q-45 0 -77.5 15t-51.5 41q-8 11 -8 21q0 13 17 29q13 11 24 11q14 0 27 -16q11 -15 27.5 -22t31.5 -7q17 0 27 6.5t10 19.5q0 32 -43 28q-21 -2 -37 9t-16 28q0 8 4 16l15 31q-123 13 -187 91
q-16 21 -16 38q0 24 25 42q17 11 33 11q22 0 41 -19q34 -34 66.5 -48.5t80.5 -14.5q41 0 69 11t28 27q0 20 -23 34t-93 36q-110 34 -156 71.5t-46 93.5q0 63 54 99t149 36q73 0 132 -22t86 -59q13 -17 13 -34q0 -24 -24 -39q-17 -11 -35 -11q-29 0 -53 24q-20 19 -51.5 29
t-68.5 10q-70 0 -70 -33q0 -13 11 -23t39.5 -21t89.5 -30q98 -30 137.5 -66t39.5 -95q0 -56 -46 -93t-131 -45q0 -1 -2 -5z" />
    <glyph glyph-name="scircumflex" unicode="&#x15d;" horiz-adv-x="546" 
d="M52 83q-16 21 -16 38q0 24 25 42q17 11 33 11q22 0 41 -19q34 -34 66.5 -48.5t80.5 -14.5q41 0 69 11t28 27q0 20 -23 34t-93 36q-110 34 -156 71.5t-46 93.5q0 63 54 99t149 36q73 0 132 -22t86 -59q13 -17 13 -34q0 -24 -24 -39q-17 -11 -35 -11q-29 0 -53 24
q-20 19 -51.5 29t-68.5 10q-70 0 -70 -33q0 -13 11 -23t39.5 -21t89.5 -30q98 -30 137.5 -66t39.5 -95q0 -63 -58 -101.5t-163 -38.5q-161 0 -237 93zM105 604q0 19 15 37l105 126q21 24 51 24t51 -24l105 -126q15 -18 15 -37q0 -22 -21 -39q-17 -12 -33 -12q-24 0 -45 27
l-72 100l-72 -100q-21 -27 -45 -27q-16 0 -33 12q-21 17 -21 39z" />
    <glyph glyph-name="uni0219" unicode="&#x219;" horiz-adv-x="546" 
d="M52 83q-16 21 -16 38q0 24 25 42q17 11 33 11q22 0 41 -19q34 -34 66.5 -48.5t80.5 -14.5q41 0 69 11t28 27q0 20 -23 34t-93 36q-110 34 -156 71.5t-46 93.5q0 63 54 99t149 36q73 0 132 -22t86 -59q13 -17 13 -34q0 -24 -24 -39q-17 -11 -35 -11q-29 0 -53 24
q-20 19 -51.5 29t-68.5 10q-70 0 -70 -33q0 -13 11 -23t39.5 -21t89.5 -30q98 -30 137.5 -66t39.5 -95q0 -63 -58 -101.5t-163 -38.5q-161 0 -237 93zM217 -296q0 15 21 36q26 26 37 61q-29 0 -46.5 17.5t-17.5 45.5q0 34 24.5 53.5t60.5 19.5q40 0 63 -24.5t23 -65.5
q0 -34 -25 -76t-63 -72q-27 -22 -45 -22q-11 0 -24 11q-8 8 -8 16z" />
    <glyph glyph-name="uni1E61" unicode="&#x1e61;" horiz-adv-x="546" 
d="M52 83q-16 21 -16 38q0 24 25 42q17 11 33 11q22 0 41 -19q34 -34 66.5 -48.5t80.5 -14.5q41 0 69 11t28 27q0 20 -23 34t-93 36q-110 34 -156 71.5t-46 93.5q0 63 54 99t149 36q73 0 132 -22t86 -59q13 -17 13 -34q0 -24 -24 -39q-17 -11 -35 -11q-29 0 -53 24
q-20 19 -51.5 29t-68.5 10q-70 0 -70 -33q0 -13 11 -23t39.5 -21t89.5 -30q98 -30 137.5 -66t39.5 -95q0 -63 -58 -101.5t-163 -38.5q-161 0 -237 93zM218 588.5q-23 21.5 -23 52.5q0 32 23 53.5t58 21.5q34 0 57 -21.5t23 -53.5q0 -31 -23 -52.5t-57 -21.5q-35 0 -58 21.5z
" />
    <glyph glyph-name="uni1E63" unicode="&#x1e63;" horiz-adv-x="546" 
d="M52 83q-16 21 -16 38q0 24 25 42q17 11 33 11q22 0 41 -19q34 -34 66.5 -48.5t80.5 -14.5q41 0 69 11t28 27q0 20 -23 34t-93 36q-110 34 -156 71.5t-46 93.5q0 63 54 99t149 36q73 0 132 -22t86 -59q13 -17 13 -34q0 -24 -24 -39q-17 -11 -35 -11q-29 0 -53 24
q-20 19 -51.5 29t-68.5 10q-70 0 -70 -33q0 -13 11 -23t39.5 -21t89.5 -30q98 -30 137.5 -66t39.5 -95q0 -63 -58 -101.5t-163 -38.5q-161 0 -237 93zM236.5 -192q-21.5 20 -21.5 54q0 35 21.5 55t59.5 20q37 0 58.5 -20t21.5 -55q0 -34 -21.5 -54t-58.5 -20q-38 0 -59.5 20
z" />
    <glyph glyph-name="germandbls" unicode="&#xdf;" horiz-adv-x="656" 
d="M290.5 6q-45.5 17 -67.5 43q-14 17 -14 34q0 21 21 39q18 15 39 15q24 0 47 -19q31 -25 69 -25q51 0 75 29t24 90q0 68 -37 99t-118 31h-25q-31 0 -48 13.5t-17 36.5q0 24 17 37.5t48 13.5h38q43 0 66.5 27t23.5 74q0 43 -34 67t-95 24q-127 0 -127 -127v-460
q0 -20 -19.5 -34.5t-45.5 -14.5t-46 15t-20 34v460q0 68 32.5 120.5t91 81.5t134.5 29t135.5 -24.5t92.5 -69t33 -101.5q0 -51 -19 -84.5t-64 -60.5v-2q66 -20 100.5 -67t34.5 -117q0 -109 -59.5 -166.5t-171.5 -57.5q-49 0 -94.5 17z" />
    <glyph glyph-name="t" unicode="t" horiz-adv-x="496" 
d="M470 97q0 -19 -14 -39q-22 -32 -62 -50t-90 -18q-80 0 -125.5 43.5t-45.5 119.5v234h-41q-30 0 -48 14t-18 37q0 24 17.5 38t48.5 14h41v151q0 28 18 44t48 16q31 0 48 -16t17 -44v-151h96q31 0 48.5 -14t17.5 -38q0 -23 -17.5 -37t-48.5 -14h-96v-245q0 -22 13.5 -35
t36.5 -13q18 0 31.5 5.5t27.5 18.5q26 25 48 25q16 0 33 -14q16 -13 16 -32z" />
    <glyph glyph-name="tbar" unicode="&#x167;" horiz-adv-x="504" 
d="M480 97q0 -19 -14 -39q-22 -32 -62 -50t-90 -18q-80 0 -125.5 43.5t-45.5 119.5v55h-23q-28 0 -44 12.5t-16 37.5q0 51 60 51h23v78h-41q-30 0 -48 14t-18 37q0 24 17.5 38t48.5 14h41v151q0 28 18 44t48 16q31 0 48 -16t17 -44v-151h96q31 0 48.5 -14t17.5 -38
q0 -23 -17.5 -37t-48.5 -14h-96v-78h96q60 0 60 -51q0 -25 -16 -37.5t-44 -12.5h-96v-66q0 -22 13.5 -35t36.5 -13q18 0 31.5 5.5t27.5 18.5q26 25 48 25q16 0 33 -14q16 -13 16 -32z" />
    <glyph glyph-name="tcaron" unicode="&#x165;" horiz-adv-x="504" 
d="M470 97q0 -19 -14 -39q-22 -32 -62 -50t-90 -18q-80 0 -125.5 43.5t-45.5 119.5v234h-41q-30 0 -48 14t-18 37q0 24 17.5 38t48.5 14h41v151q0 28 18 44t48 16q31 0 48 -16t17 -44v-151h96q31 0 48.5 -14t17.5 -38q0 -23 -17.5 -37t-48.5 -14h-96v-245q0 -22 13.5 -35
t36.5 -13q18 0 31.5 5.5t27.5 18.5q26 25 48 25q16 0 33 -14q16 -13 16 -32zM359 564q0 18 22 37q16 13 27 28.5t14 29.5q-27 -2 -44.5 16t-17.5 47q0 35 22.5 53.5t61.5 18.5t62 -25.5t23 -63.5q0 -36 -23.5 -74.5t-63.5 -71.5q-26 -21 -50 -21q-18 0 -28 12q-5 5 -5 14z
" />
    </font>
</defs>
</svg>
